[bittorrent] Phish 2016-07-02 SPAC Saratoga Springs, NY Schoeps mk4v/kc5/cmc6>Sonosax SX-R4 **16bit**

Automated Mailer noreply-bt.e at etree.org
Tue Aug 2 22:22:22 UTC 2016


Band:           Phish
Torrent Name:   Phish 2016-07-02 SPAC Saratoga Springs, NY Schoeps mk4v/kc5/cmc6>Sonosax SX-R4 **16bit**
Uploaded by:    andyjah
DB Link:        
Details:        http://bt.etree.org/details.php?id=587979

Contact the seeder at http://db.etree.org/andyjah

If the link to this show does not work, it was probably removed for
being non-trade-friendly.

Description / text file:
-------------------------
Phish 
2016-07-02
Saratoga Performing Arts Center
Saratoga Springs, NY

mics were NOS setup in the OTS

Schoeps mk4v>kc5>cmc6>Sonosax SX-R4 (24bit/96khz)

WAV>USB>Imac>Audacity(tracking,fades)>Sony Soundforge Convrt(resample(izotope,higher than highest settings)/dither(mbit+/ultra, high dither)to 16 bit/44.1k)>XAct(FLAC 8,ffp,fix sbe,tagging)

Recorded and transferred by Andy Murray

01. crowd
02. Crowd Control
03. 555
04. Seven Below
05. Back on the Train
06. Army of One
07. Divided Sky
08. Martian Monster
09. Rift
10. Water in the Sky
11. 46 Days
12. Walls Of The Cave

Set Two

01. crowd set 2
02. No Men In No Man's Land
03. Fuego
04. Light
05. Golden Age
06. Taste
07. The Horse
08. Silent In The Morning
09. Julius
10. A Day in the Life
11. encore break
12. Bouncing Around the Room
13. Run Like an Antelope

;flac fingerprints generated by xACT 2.38 on 2016-08-02 20:45:39 +0000

ph2016-07-02.mk4v.sxr4.1644.s1t01.flac:2f30f9f163b3b42ec044f2281ec93f0e
ph2016-07-02.mk4v.sxr4.1644.s1t02.flac:04af5cc78ee66cf636abe5ad4718bc93
ph2016-07-02.mk4v.sxr4.1644.s1t03.flac:43b9747dff3dbf05a652a5ef0dc202ca
ph2016-07-02.mk4v.sxr4.1644.s1t04.flac:24bc4cfae1e4c969680c904caa83334d
ph2016-07-02.mk4v.sxr4.1644.s1t05.flac:03995c146f7ea63124b73f4883753244
ph2016-07-02.mk4v.sxr4.1644.s1t06.flac:487ab9dcf6ec520a435b01cd5d221d08
ph2016-07-02.mk4v.sxr4.1644.s1t07.flac:b7f112ceb465e91225a4e90c093ac842
ph2016-07-02.mk4v.sxr4.1644.s1t08.flac:00fd85546e6a2224f01e9371f8dc5d75
ph2016-07-02.mk4v.sxr4.1644.s1t09.flac:6f58b1777dc64fb87fb5bad1f62ba004
ph2016-07-02.mk4v.sxr4.1644.s1t10.flac:ee5d6e43544c63f89401fd8dcdf85f08
ph2016-07-02.mk4v.sxr4.1644.s1t11.flac:ec2ff466ac80551999f67f947a02abb0
ph2016-07-02.mk4v.sxr4.1644.s1t12.flac:b9e838b6589e48619e3d062fd6321da6
ph2016-07-02.mk4v.sxr4.1644.s2t01.flac:fb91896423740136a6a09557b228ada4
ph2016-07-02.mk4v.sxr4.1644.s2t02.flac:4737d1b2f74fed8879992323d25a1562
ph2016-07-02.mk4v.sxr4.1644.s2t03.flac:d1c68aa1822fa831efae05800b75a57c
ph2016-07-02.mk4v.sxr4.1644.s2t04.flac:16f02113f693452ea6a7566e717c7982
ph2016-07-02.mk4v.sxr4.1644.s2t05.flac:0cdd1821614ff2305f887459b0ecbc37
ph2016-07-02.mk4v.sxr4.1644.s2t06.flac:58f68c406eac3fb8793842e5f3336f85
ph2016-07-02.mk4v.sxr4.1644.s2t07.flac:101014f7fb57d21a970cbdaedd1eaa59
ph2016-07-02.mk4v.sxr4.1644.s2t08.flac:77e05d3a01282604613f5cd75eb6b062
ph2016-07-02.mk4v.sxr4.1644.s2t09.flac:f8006d607fb5eaa01512977a9a6ba82c
ph2016-07-02.mk4v.sxr4.1644.s2t10.flac:8bc7de23f48be9fa4681802129aff54d
ph2016-07-02.mk4v.sxr4.1644.s2t11.flac:0db2d6fd5fae888d89f37e8ac99aef0a
ph2016-07-02.mk4v.sxr4.1644.s2t12.flac:93beeff964150ada2940133d8d044e18
ph2016-07-02.mk4v.sxr4.1644.s2t13.flac:61bb6704cffd5f0517f9ca87b66596c4

    length     expanded size    cdr  WAVE problems  fmt   ratio  filename
     1:07.68       11978780 B   ---   --   -----    wav  1.0000  ph2016-07-02.mk4v.sxr4.1644.s1t01.wav
     4:43.67       50078828 B   ---   --   -----    wav  1.0000  ph2016-07-02.mk4v.sxr4.1644.s1t02.wav
     6:21.31       67281356 B   ---   --   -----    wav  1.0000  ph2016-07-02.mk4v.sxr4.1644.s1t03.wav
     6:09.09       65112812 B   ---   --   -----    wav  1.0000  ph2016-07-02.mk4v.sxr4.1644.s1t04.wav
     7:34.08       80104460 B   ---   --   -----    wav  1.0000  ph2016-07-02.mk4v.sxr4.1644.s1t05.wav
     4:24.71       46736636 B   ---   --   -----    wav  1.0000  ph2016-07-02.mk4v.sxr4.1644.s1t06.wav
    14:30.38      153557420 B   ---   --   -----    wav  1.0000  ph2016-07-02.mk4v.sxr4.1644.s1t07.wav
     5:39.59       59938412 B   ---   --   -----    wav  1.0000  ph2016-07-02.mk4v.sxr4.1644.s1t08.wav
     6:35.03       69685100 B   ---   --   -----    wav  1.0000  ph2016-07-02.mk4v.sxr4.1644.s1t09.wav
     3:22.71       35799836 B   ---   --   -----    wav  1.0000  ph2016-07-02.mk4v.sxr4.1644.s1t10.wav
     7:01.11       74290316 B   ---   --   -----    wav  1.0000  ph2016-07-02.mk4v.sxr4.1644.s1t11.wav
    11:30.23      121770140 B   ---   --   -----    wav  1.0000  ph2016-07-02.mk4v.sxr4.1644.s1t12.wav
     0:46.28        8180300 B   ---   --   -----    wav  1.0000  ph2016-07-02.mk4v.sxr4.1644.s2t01.wav
     7:34.46       80193836 B   ---   --   -----    wav  1.0000  ph2016-07-02.mk4v.sxr4.1644.s2t02.wav
    12:28.45      132053084 B   ---   --   -----    wav  1.0000  ph2016-07-02.mk4v.sxr4.1644.s2t03.wav
    13:38.55      144424604 B   ---   --   -----    wav  1.0000  ph2016-07-02.mk4v.sxr4.1644.s2t04.wav
     7:02.41       74537276 B   ---   --   -----    wav  1.0000  ph2016-07-02.mk4v.sxr4.1644.s2t05.wav
     7:45.05       82037804 B   ---   --   -----    wav  1.0000  ph2016-07-02.mk4v.sxr4.1644.s2t06.wav
     0:47.65        8443724 B   ---   --   -----    wav  1.0000  ph2016-07-02.mk4v.sxr4.1644.s2t07.wav
     4:50.42       51254828 B   ---   --   -----    wav  1.0000  ph2016-07-02.mk4v.sxr4.1644.s2t08.wav
     7:30.06       79394156 B   ---   --   -----    wav  1.0000  ph2016-07-02.mk4v.sxr4.1644.s2t09.wav
     5:36.41       59366876 B   ---   --   -----    wav  1.0000  ph2016-07-02.mk4v.sxr4.1644.s2t10.wav
     3:23.02       35813948 B   ---   --   -----    wav  1.0000  ph2016-07-02.mk4v.sxr4.1644.s2t11.wav
     3:40.60       38949164 B   ---   --   -----    wav  1.0000  ph2016-07-02.mk4v.sxr4.1644.s2t12.wav
    12:03.30      127607804 B   ---   --   -----    wav  1.0000  ph2016-07-02.mk4v.sxr4.1644.s2t13.wav
   166:09.25     1758591500 B                            1.0000  (25 files)




More information about the bittorrent mailing list