[bittorrent] jgms1974-10-06.sbd.mr.dat(48k).set1

Automated Mailer noreply-bt.e at etree.org
Tue Aug 2 20:13:28 UTC 2016


Band:           Garcia
Torrent Name:   jgms1974-10-06.sbd.mr.dat(48k).set1
Uploaded by:    greendude
DB Link:        
Details:        http://bt.etree.org/details.php?id=587978

Contact the seeder at http://db.etree.org/greendude

If the link to this show does not work, it was probably removed for
being non-trade-friendly.

Description / text file:
-------------------------
Jerry Garcia and Merl Saunders
Great American Music Hall
San Francisco, CA
10/06/1974 (first set)


Source: sbd > master-reel > dat(48k)


    Jerry Garcia - guitar, vocals
    Merl Saunders - keyboards, vocals
    John Kahn - bass
    Martin Fierro - saxophone
    Jim Nelson (sits in for Paul Humphrey for this performance) - drums



Set I  ONLY

01  Tuning
02  Think
03  Valdez In The Country >
04  Jam >
05  Freedom Jazz Dance
06  (I'm A) Road Runner
07  Mystery Train
08  The Night They Drove Old Dixie Down



Notes:

- this version has been provided by an anonymous source
- this (most excellent sounding) COMPLETE first set has never circulated in any form
- Valdez/Freedom Jazz Dance has been circulated with SHN-ID#9026
- lots of level adjustments have been made
- the show has been made seamless
- lots of artifacts have been removed and a number of other repairs have been done
- all files have been tagged




edited and mastered By SIRMick



    length     expanded size    cdr  WAVE problems  fmt   ratio  filename
     0:34.453       6615084 B   cxx   --   ---xx   flac  0.4642  jg1974-10-06.s1t01_Tuning.flac
    10:39.267     122739244 B   cxx   --   ---xx   flac  0.5714  jg1974-10-06.s1t02_Think.flac
    12:22.427     142545964 B   cxx   --   ---xx   flac  0.5780  jg1974-10-06.s1t03_Valdez_In_The_Country.flac
     4:43.000      54336044 B   cxx   --   ---xx   flac  0.6193  jg1974-10-06.s1t04_Jam.flac
    13:11.040     151879724 B   cxx   --   ---xx   flac  0.5671  jg1974-10-06.s1t05_Freedom_Jazz_Dance.flac
     9:33.747     110159404 B   cxx   --   ---xx   flac  0.6057  jg1974-10-06.s1t06_(Im_A)_Road_Runner.flac
    11:52.147     136732204 B   cxx   --   ---xx   flac  0.6082  jg1974-10-06.s1t07_Mystery_Train.flac
     7:19.465      84377324 B   cxx   --   ---xx   flac  0.5537  jg1974-10-06.s1t08_The_Night_They_Drove_Old_Dixie_Down.flac
    70:15.545     809384992 B                            0.5831  (8 files)





More information about the bittorrent mailing list