[bittorrent] jgms1974-01-17s2t.sbd.mr.dat(48k)

Automated Mailer noreply-bt.e at etree.org
Tue Aug 2 20:08:19 UTC 2016


Band:           Garcia
Torrent Name:   jgms1974-01-17s2t.sbd.mr.dat(48k)
Uploaded by:    greendude
DB Link:        
Details:        http://bt.etree.org/details.php?id=587976

Contact the seeder at http://db.etree.org/greendude

If the link to this show does not work, it was probably removed for
being non-trade-friendly.

Description / text file:
-------------------------
Jerry Garcia and Merl Saunders
The Keystone
Berkley, CA
01/17/1974
Set II


Source: Soundboard > Master Reel > DAT (48k) 


01   tuning
02   Finders Keepers
03   tuning
04   Think *
05   tuning
06   Are You Lonely For Me, Baby?
07   The Harder They Come


Jerry Garcia - guitar, vocals
Merl Saunders - keyboards, vocals
John Kahn - bass
Martin Fierro - saxophone, flute
Bill Kreutzmann - drums



Notes:

- This recording has been provided by an anonymous source.
- Very little work has been done on this, a few clicks removed, one repair and some level adjustments made.
- The  mix changes around 22 seconds, Garcia's vocal is moved from the left channel to become more central. *
- All files have been tagged.


Garcia doesn't get to sound any better than this.

edited and mastered By SIRMick




shntool output:

    length     expanded size    cdr  WAVE problems  fmt   ratio  filename
     0:39.547       7593004 B   cxx   --   ---xx   flac  0.3985  jgms1974-01-17s2t01.flac
    10:18.973     118842924 B   cxx   --   ---xx   flac  0.5672  jgms1974-01-17s2t02.flac
     1:10.760      13585964 B   cxx   --   ---xx   flac  0.3643  jgms1974-01-17s2t03.flac
     9:06.640     104954924 B   cxx   --   ---xx   flac  0.5617  jgms1974-01-17s2t04.flac
     1:49.493      21022764 B   cxx   --   ---xx   flac  0.3746  jgms1974-01-17s2t05.flac
    22:46.080     262287404 B   cxx   --   ---xx   flac  0.5293  jgms1974-01-17s2t06.flac
    12:57.640     149306924 B   cxx   --   ---xx   flac  0.5681  jgms1974-01-17s2t07.flac
    58:49.133     677593908 B                            0.5399  (7 files)



More information about the bittorrent mailing list