[bittorrent] gd1969-04-05.sbd.reelmaster.dat.flac16.e

Automated Mailer noreply-bt.e at etree.org
Tue Aug 2 13:48:15 UTC 2016


Band:           Grateful Dead
Torrent Name:   gd1969-04-05.sbd.reelmaster.dat.flac16.e
Uploaded by:    grateful darkstar
DB Link:        
Details:        http://bt.etree.org/details.php?id=587975

Contact the seeder at http://db.etree.org/grateful darkstar

If the link to this show does not work, it was probably removed for
being non-trade-friendly.

Description / text file:
-------------------------
Grateful Dead
Avalon Ballroom
San Francisco, CA
04/05/1969

Source:  Soundboard > Reel Master > Dat (48k)

Set I

01   Dupree's Diamond Blues
02   Mountains Of The Moon >
03   Dark Star >
04   St. Stephen > *
05   Turn On Your Love Light


Set II

01   Hard To Handle >
02   Cosmic Charlie
03   tuning
04   China Cat Sunflower >
05   Doin' That Rag
06   Cryptical Envelopment  >
07   The Other One >
08   Cryptical Envelopment >
09   The Eleven >
10   It's A Sin
11   Alligator >
12   Drums >
13   Feedback >
14   And We Bid You Good Night



Notes:

- This version has been provided by an anonymous source.
- There was a cut in 'Love Light' 14:25 - 15:49 has been been patched with shnid 65, after adjusting it so that it is a closer match to this source.
- A number of level adjustments have been made and a few clicks removed. 
- All files are tagged.
* According to Robert Hunter's book 'Box Of Rain' the 'William Tell Bridge' is part of 'St. Stephen' 



edited and mastered
SIRMIck
April 2013


shntool output:

    length     expanded size    cdr  WAVE problems  fmt   ratio  filename
     4:03.18       42907580 B   ---   --   ---xx   flac  0.4652  gd1969-04-05s1t01.flac
     6:09.12       65119868 B   ---   --   ---xx   flac  0.4168  gd1969-04-05s1t02.flac
    17:27.16      184728476 B   ---   --   ---xx   flac  0.4752  gd1969-04-05s1t03.flac
     6:46.60       71759564 B   ---   --   ---xx   flac  0.4977  gd1969-04-05s1t04.flac
    17:23.45      184091084 B   ---   --   ---xx   flac  0.4931  gd1969-04-05s1t05.flac
     5:55.25       62680844 B   ---   --   ---xx   flac  0.5408  gd1969-04-05s2t01.flac
     6:49.07       72164108 B   ---   --   ---xx   flac  0.4713  gd1969-04-05s2t02.flac
     1:50.29       19472252 B   ---   --   ---xx   flac  0.3971  gd1969-04-05s2t03.flac
     5:36.02       59275148 B   ---   --   ---xx   flac  0.5407  gd1969-04-05s2t04.flac
     9:32.63      101049020 B   ---   --   ---xx   flac  0.4926  gd1969-04-05s2t05.flac
     2:23.31       25298156 B   ---   --   ---xx   flac  0.4819  gd1969-04-05s2t06.flac
     9:15.51       98021996 B   ---   --   ---xx   flac  0.5495  gd1969-04-05s2t07.flac
     6:05.55       64515404 B   ---   --   ---xx   flac  0.5236  gd1969-04-05s2t08.flac
     8:28.51       89731196 B   ---   --   ---xx   flac  0.5375  gd1969-04-05s2t09.flac
     6:06.27       64625948 B   ---   --   ---xx   flac  0.4683  gd1969-04-05s2t10.flac
     3:52.06       40938956 B   ---   --   ---xx   flac  0.5389  gd1969-04-05s2t11.flac
     4:30.41       47724476 B   ---   --   ---xx   flac  0.4856  gd1969-04-05s2t12.flac
     7:56.59       84105212 B   ---   --   ---xx   flac  0.4847  gd1969-04-05s2t13.flac
     3:29.44       36971132 B   ---   --   ---xx   flac  0.4515  gd1969-04-05s2t14.flac
   133:42.42     1415180420 B                            0.4945  (19 files)





More information about the bittorrent mailing list