[bittorrent] gd1973-03-15.sbd.reelmaster.cassette.dat.flac16.e

Automated Mailer noreply-bt.e at etree.org
Tue Aug 2 13:26:38 UTC 2016


Band:           Grateful Dead
Torrent Name:   gd1973-03-15.sbd.reelmaster.cassette.dat.flac16.e
Uploaded by:    grateful darkstar
DB Link:        
Details:        http://bt.etree.org/details.php?id=587974

Contact the seeder at http://db.etree.org/grateful darkstar

If the link to this show does not work, it was probably removed for
being non-trade-friendly.

Description / text file:
-------------------------
Grateful Dead
Nassau Veterans Memorial Coliseum
Uniondale, NY
03/15/73


Source: Soundboard > Reel Master > Cassette > DAT (48k)


Set I

01   Intro
02   The Promised Land
03   Mississippi Half-Step Uptown Toodleloo
04   Mexicali//Blues
05   tuning
06   They Love Each Other
07   tuning
08   Looks Like Rain
09   tuning
10   Deal
11   Beat It On Down The Line
12   "...a minor technical difficulty, that means it's wrecked"
13   Box Of//Rain
14   Row Jimmy
15   Me And My Uncle
16   Tennessee Jed
17   El Paso
18   Here Comes Sunshine
19   Playing In//The Band


Set II

01   Loose Lucy
02   //Big River
03   Sugaree
04   Jack//Straw
05   Stella Blue
06   Truckin'
07   The Other One
08   Eyes Of//The World
09   China Doll

[missing] You Ain't Woman Enough
[missin] Sugar Magnolia
[missing] Casey Jones



Notes:

- This version has been provided by an anonymous source. 
- A substantial amount of this show has never circulated in soundboard quality before and it's not hard to figure out why, parts of the Master Reels are not in very good shape at all.  However, after major surgery, including a transplant, our patient is doing fairly well.  The new Sugaree is functioning perfectly.  Our benefactor is not in favour of audience patches so the patient is missing some vital parts as there are no suitable donors.
- "Sugaree" is provided by shnid 14035
- Some sections have been made mono as the damage in one channel was too severe to be repaired.
- The mix gets a little different in places. e.g.  'Me and My Uncle' has Weir's guitar up much higher than anything else for a lot of the track.
- All files are tagged.



edited and mastered
SIRMIck
April 2013


shntool output:

    length     expanded size    cdr  WAVE problems  fmt   ratio  filename
     0:28.53        5063900 B   ---   --   ---xx   flac  0.3815  gd1973-03-15s1t01.flac
     3:23.62       35955068 B   ---   --   ---xx   flac  0.5485  gd1973-03-15s1t02.flac
     8:25.74       89256092 B   ---   --   ---xx   flac  0.5419  gd1973-03-15s1t03.flac
     3:27.14       36547772 B   ---   --   ---xx   flac  0.5685  gd1973-03-15s1t04.flac
     1:19.13       13966220 B   ---   --   ---xx   flac  0.4434  gd1973-03-15s1t05.flac
     5:19.33       56349260 B   ---   --   ---xx   flac  0.5609  gd1973-03-15s1t06.flac
     1:00.01       10586396 B   ---   --   ---xx   flac  0.4512  gd1973-03-15s1t07.flac
     6:38.62       70353068 B   ---   --   ---xx   flac  0.5441  gd1973-03-15s1t08.flac
     1:08.47       12105788 B   ---   --   ---xx   flac  0.4468  gd1973-03-15s1t09.flac
     5:21.07       56640908 B   ---   --   ---xx   flac  0.5785  gd1973-03-15s1t10.flac
     3:14.31       34294556 B   ---   --   ---xx   flac  0.5972  gd1973-03-15s1t11.flac
     3:02.42       32203628 B   ---   --   ---xx   flac  0.4509  gd1973-03-15s1t12.flac
     4:45.35       50356364 B   ---   --   ---xx   flac  0.5595  gd1973-03-15s1t13.flac
     8:34.02       90674348 B   ---   --   ---xx   flac  0.5298  gd1973-03-15s1t14.flac
     3:12.02       33873548 B   ---   --   ---xx   flac  0.5392  gd1973-03-15s1t15.flac
     8:41.59       92043212 B   ---   --   ---xx   flac  0.5433  gd1973-03-15s1t16.flac
     4:39.57       49349708 B   ---   --   ---xx   flac  0.5420  gd1973-03-15s1t17.flac
     9:09.26       96904796 B   ---   --   ---xx   flac  0.5513  gd1973-03-15s1t18.flac
    23:20.58      247096460 B   ---   --   ---xx   flac  0.5803  gd1973-03-15s1t19.flac
     7:35.32       80337308 B   ---   --   ---xx   flac  0.5669  gd1973-03-15s2t01.flac
     1:54.08       20128460 B   ---   --   ---xx   flac  0.5714  gd1973-03-15s2t02.flac
     9:10.57       97154108 B   ---   --   ---xx   flac  0.5349  gd1973-03-15s2t03.flac
     4:33.46       48265436 B   ---   --   ---xx   flac  0.5738  gd1973-03-15s2t04.flac
     7:25.32       78573308 B   ---   --   ---xx   flac  0.5217  gd1973-03-15s2t05.flac
    10:45.06      113792156 B   ---   --   ---xx   flac  0.5616  gd1973-03-15s2t06.flac
    15:44.55      166651004 B   ---   --   ---xx   flac  0.5324  gd1973-03-15s2t07.flac
    18:33.29      196401452 B   ---   --   ---xx   flac  0.5685  gd1973-03-15s2t08.flac
     5:54.16       62483276 B   ---   --   ---xx   flac  0.5086  gd1973-03-15s2t09.flac
   186:49.59     1977407600 B                            0.5495  (28 files)





More information about the bittorrent mailing list