[bittorrent] gd1972-12-15.sbd.reel1.dat.flac16.e

Automated Mailer noreply-bt.e at etree.org
Tue Aug 2 13:21:42 UTC 2016


Band:           Grateful Dead
Torrent Name:   gd1972-12-15.sbd.reel1.dat.flac16.e
Uploaded by:    grateful darkstar
DB Link:        
Details:        http://bt.etree.org/details.php?id=587973

Contact the seeder at http://db.etree.org/grateful darkstar

If the link to this show does not work, it was probably removed for
being non-trade-friendly.

Description / text file:
-------------------------
Grateful Dead
Long Beach Arena
Long Beach, CA
12/15/72

Source: Soundboard > Master-Reel > Reel (1st gen) > DAT


Set I

01   //Promised Land
02   Sugaree
03   Black Throated Wind
04   Tennessee Jed
05   El Paso
06   Candy//man
07   Big River
08   China Cat Sunflower >
09   I Know You Rider
10   Box of Rain
11   Mexicali Blues
12   Brown-Eyed Women
13   Beat It On Down the Line
14   Loser
15   Playin' In The Band
16   Casey Jones


Set II

01   //Greatest Story Ever Told
02   Deal
03   Me And My Uncle
04   He's//Gone
05   Truckin' >
06   Jam >
07   Dark Star >
08   Morning Dew
09   Sugar Magnolia

encore

10   Johnny B. Goode

Bonus track

The Chipmunks do Truckin' (This is actually what part of it sounded like before it was adjusted.)


Notes:

- This version has been provided by an anonymous source.
- There was a cut in "Playin' In The Band2 of approximately 27 seconds which has been been patched with shnid 17186
- A number of level adjustments have been made and speed issues addressed. 
- There is some light crackle in the left channel during the first 30 minutes or so of Set I, which is only really noticeable between songs and in quiet passages.  Although it has been greatly reduced it cannot be entirely eliminated.
- All files are tagged.


edited and mastered
SIRMick
May 2013



shntool output:

    length     expanded size    cdr  WAVE problems  fmt   ratio  filename
     2:34.45       27271484 B   ---   --   ---xx   flac  0.5508  gd1972-12-15s1t01.flac
     7:33.52       80031548 B   ---   --   ---xx   flac  0.5212  gd1972-12-15s1t02.flac
     7:12.04       76214252 B   ---   --   ---xx   flac  0.4965  gd1972-12-15s1t03.flac
     7:53.23       83491340 B   ---   --   ---xx   flac  0.5072  gd1972-12-15s1t04.flac
     4:39.63       49363820 B   ---   --   ---xx   flac  0.4846  gd1972-12-15s1t05.flac
     6:49.68       72307580 B   ---   --   ---xx   flac  0.4817  gd1972-12-15s1t06.flac
     4:25.01       46748396 B   ---   --   ---xx   flac  0.5068  gd1972-12-15s1t07.flac
     6:13.68       65957180 B   ---   --   ---xx   flac  0.5169  gd1972-12-15s1t08.flac
     5:08.23       54385340 B   ---   --   ---xx   flac  0.5035  gd1972-12-15s1t09.flac
     5:09.25       54566444 B   ---   --   ---xx   flac  0.5119  gd1972-12-15s1t10.flac
     3:31.26       37281596 B   ---   --   ---xx   flac  0.5157  gd1972-12-15s1t11.flac
     5:34.23       58971740 B   ---   --   ---xx   flac  0.5181  gd1972-12-15s1t12.flac
     3:11.64       33842972 B   ---   --   ---xx   flac  0.5373  gd1972-12-15s1t13.flac
     6:41.20       70783484 B   ---   --   ---xx   flac  0.4943  gd1972-12-15s1t14.flac
    18:44.50      198391244 B   ---   --   ---xx   flac  0.5143  gd1972-12-15s1t15.flac
     6:32.64       69299372 B   ---   --   ---xx   flac  0.5114  gd1972-12-15s1t16.flac
     4:33.66       48312476 B   ---   --   ---xx   flac  0.5478  gd1972-12-15s2t01.flac
     4:30.32       47703308 B   ---   --   ---xx   flac  0.5422  gd1972-12-15s2t02.flac
     2:59.14       31608572 B   ---   --   ---xx   flac  0.5178  gd1972-12-15s2t03.flac
    15:46.31      166947356 B   ---   --   ---xx   flac  0.5022  gd1972-12-15s2t04.flac
     7:41.57       81454508 B   ---   --   ---xx   flac  0.4877  gd1972-12-15s2t05.flac
    14:01.24      148408892 B   ---   --   ---xx   flac  0.5007  gd1972-12-15s2t06.flac
    10:58.50      116188844 B   ---   --   ---xx   flac  0.4935  gd1972-12-15s2t07.flac
    12:13.13      129331820 B   ---   --   ---xx   flac  0.5020  gd1972-12-15s2t08.flac
     7:58.63       84467420 B   ---   --   ---xx   flac  0.5403  gd1972-12-15s2t09.flac
     3:43.66       39492476 B   ---   --   ---xx   flac  0.5664  gd1972-12-15s2t10.flac
   186:23.60     1972823464 B                            0.5099  (26 files)





More information about the bittorrent mailing list