[bittorrent] gd1970-05-14s2.sbd.reelmaster.dat.flac16e

Automated Mailer noreply-bt.e at etree.org
Mon Aug 1 13:44:44 UTC 2016


Band:           Grateful Dead
Torrent Name:   gd1970-05-14s2.sbd.reelmaster.dat.flac16e
Uploaded by:    grateful darkstar
DB Link:        
Details:        http://bt.etree.org/details.php?id=587958

Contact the seeder at http://db.etree.org/grateful darkstar

If the link to this show does not work, it was probably removed for
being non-trade-friendly.

Description / text file:
-------------------------
Grateful Dead
Meramec Community College,
Kirkwood, MO
05/14/70


Source: Soundboard > Reel Master > DAT (48k)


Set II - Electric

01   tuning and intro
02   Casey Jones
03   China Cat Sunflower >
04   I Know You Rider
05   Mama Tried >
06   High Time
07   Drums/Good Lovin'
08   Good Morning Little Schoolgirl
09   Me And My Uncle
10   Dire Wolf
11   Cold Rain And Snow
12   Attics Of My Life
13   Cumberland Blues
14   New Speedway Boogie > Nobody's Fault But Mine Jam > New Speedway Boogie
15   St. Stephen >
16   Not Fade Away >
17   Turn On Your Love Light 
18   break before encore

encore

19   Cold Jordan *



guests *

David Nelson - mandolin
John 'Marmaduke' Dawson - bass, vocals


Notes:

- This version has been provided by an anonymous source.
- There is no cassette gen. in the lineage of this documented source.
- This is the COMPLETE electric set.  Dire Wolf and Cold Jordan have never circulated before.
- Level adjustments have been made and speed issues addressed.
- A few high-pitched feed back noises have been removed, and several pops and clicks too. 
- All files are tagged.



edited and mastered
SIRMick
April 2013


shntool output:

    length     expanded size    cdr  WAVE problems  fmt   ratio  filename
     1:06.23       11696540 B   ---   --   ---xx   flac  0.4404  gd1970-05-14s2t01.flac
     5:06.73       54150140 B   ---   --   ---xx   flac  0.5319  gd1970-05-14s2t02.flac
     4:55.05       52049804 B   ---   --   ---xx   flac  0.5543  gd1970-05-14s2t03.flac
     4:39.19       49260332 B   ---   --   ---xx   flac  0.5443  gd1970-05-14s2t04.flac
     2:32.43       26913980 B   ---   --   ---xx   flac  0.5093  gd1970-05-14s2t05.flac
     7:30.54       79507052 B   ---   --   ---xx   flac  0.4729  gd1970-05-14s2t06.flac
    12:28.32      132022508 B   ---   --   ---xx   flac  0.5181  gd1970-05-14s2t07.flac
    11:00.36      116508716 B   ---   --   ---xx   flac  0.5241  gd1970-05-14s2t08.flac
     3:40.19       38852732 B   ---   --   ---xx   flac  0.5084  gd1970-05-14s2t09.flac
     4:24.74       46743692 B   ---   --   ---xx   flac  0.5007  gd1970-05-14s2t10.flac
     6:15.60       66291164 B   ---   --   ---xx   flac  0.5365  gd1970-05-14s2t11.flac
     5:26.21       57555836 B   ---   --   ---xx   flac  0.4729  gd1970-05-14s2t12.flac
     4:55.35       52120364 B   ---   --   ---xx   flac  0.5175  gd1970-05-14s2t13.flac
     9:15.57       98036108 B   ---   --   ---xx   flac  0.5213  gd1970-05-14s2t14.flac
     6:24.67       67895228 B   ---   --   ---xx   flac  0.5400  gd1970-05-14s2t15.flac
     6:48.06       71985356 B   ---   --   ---xx   flac  0.5382  gd1970-05-14s2t16.flac
    17:27.41      184787276 B   ---   --   ---xx   flac  0.5349  gd1970-05-14s2t17.flac
     4:33.27       48220748 B   ---   --   ---xx   flac  0.4299  gd1970-05-14s2t18.flac
     2:26.55       25883804 B   ---   --   ---xx   flac  0.5079  gd1970-05-14s2t19.flac
   120:58.72     1280481380 B                            0.5174  (19 files)





More information about the bittorrent mailing list