[bittorrent] gd1969-07-12s2.partial.sbd.msc.dat(44k)e

Automated Mailer noreply-bt.e at etree.org
Mon Aug 1 13:41:51 UTC 2016


Band:           Grateful Dead
Torrent Name:   gd1969-07-12s2.partial.sbd.msc.dat(44k)e
Uploaded by:    grateful darkstar
DB Link:        
Details:        http://bt.etree.org/details.php?id=587957

Contact the seeder at http://db.etree.org/grateful darkstar

If the link to this show does not work, it was probably removed for
being non-trade-friendly.

Description / text file:
-------------------------
Grateful Dead
New York State Pavilion
Flushing Meadow Park,
Queens, New York, NY
07/12/1969

Partial Set II


Source: Soundboard > Cassette Master > DAT (44k) 



01   //Dark Star >
02   The Other One >
03   St. Stephen >
04   The Eleven >
05   Turn On Your Love Light


Notes:

- This version has been provided by an anonymous source.
- All files are tagged.


edited and mastered
SIRMick
January 2015


shntool ouput:

    length     expanded size    cdr  WAVE problems  fmt   ratio  filename
     9:48.19      103767932 B   ---   --   ---xx   flac  0.3850  gd1969-07-12t01.flac
     5:38.70       59787884 B   ---   --   ---xx   flac  0.4060  gd1969-07-12t02.flac
     7:08.56       75630956 B   ---   --   ---xx   flac  0.3882  gd1969-07-12t03.flac
    13:42.01      145003196 B   ---   --   ---xx   flac  0.3948  gd1969-07-12t04.flac
    23:02.57      243918908 B   ---   --   ---xx   flac  0.3773  gd1969-07-12t05.flac
    59:20.53      628108876 B                            0.3867  (5 files)





More information about the bittorrent mailing list