[bittorrent] gd1968-09-12.sbd.mr.dat(48k)e

Automated Mailer noreply-bt.e at etree.org
Mon Aug 1 13:38:28 UTC 2016


Band:           Grateful Dead
Torrent Name:   gd1968-09-12.sbd.mr.dat(48k)e
Uploaded by:    grateful darkstar
DB Link:        
Details:        http://bt.etree.org/details.php?id=587956

Contact the seeder at http://db.etree.org/grateful darkstar

If the link to this show does not work, it was probably removed for
being non-trade-friendly.

Description / text file:
-------------------------
Grateful Dead
Unknown location (possibly Pacific High Recording, San Mateo, CA)
09/12/68 *

Clementine Practise Session


Source: sbd > 7 inch Master Reel @ 7.5ips 1/2 track > dat(48k)



01   Clementine (many takes)
02   Clementine (several takes, a couple with vocals by Phil)
03   Space like jam with some improvised vocals



Notes:

- This version has been provided by an anonymous source.
- The date on the tape is 09/12/69 but it is almost certainly 1968. * 

   The tapers section at dead.net for the w.e. 23 September says:
   
Going back a few years, we are pleased to play a couple of jams from 9/21/68. This material is drawn from a very interesting tape, in that it features Phil, Jerry and Mickey, plus a couple of guest musicians, in a studio jam right in the midst of the period in which the Mickey and the Hartbeats shows were being performed without Bobby and Pigpen. From this studio session, we have a nice Clementine Jam and another very interesting Jam.

Unfortunately the link is dead so we can't compare it at this time.

- After the jam Garcia says "Was it wierd, did you like it?"
- All files are tagged.


edited and mastered
SIRMick
January 2015


shntool output:

    length     expanded size    cdr  WAVE problems  fmt   ratio  filename
    27:42.28      293242700 B   ---   --   ---xx   flac  0.3286  gd1968-09-12t01.flac
     7:50.58       83044460 B   ---   --   ---xx   flac  0.2987  gd1968-09-12t02.flac
     8:43.63       92405420 B   ---   --   ---xx   flac  0.3425  gd1968-09-12t03.flac
    44:16.74      468692580 B                            0.3261  (3 files)





More information about the bittorrent mailing list