[bittorrent] jgms1974-02-16.sbd.mr.dat(48k)

Automated Mailer noreply-bt.e at etree.org
Mon Aug 1 01:26:56 UTC 2016


Band:           Garcia
Torrent Name:   jgms1974-02-16.sbd.mr.dat(48k)
Uploaded by:    greendude
DB Link:        
Details:        http://bt.etree.org/details.php?id=587953

Contact the seeder at http://db.etree.org/greendude

If the link to this show does not work, it was probably removed for
being non-trade-friendly.

Description / text file:
-------------------------
-----THANKS TO ANONYMOUS-----


Jerry Garcia and Merl Saunders
The Keystone,
Berkeley, CA 
02/16/1974

Source: Soundboard > Master Reel (10" reel @ 7.5 ips ½ trk, taped by Betty Cantor-Jackson) > Dat (48k)


Set I

01   //Soul Roach
02   tuning
03   La-La 
04   tuning
05   Think 
06   tuning
07   I Second That Emotion 
08   Are You Lonely For Me, Baby? 
09   tuning
10   The Harder They Come 


Set II
 
01   tuning
02   Money Honey 
03   tuning
04   Wondering Why 
05   tuning
06   (I'm) A Roadrunner 
07   tuning
08   Little Bit of Righteousness
09   tuning
10   How Sweet It Is (To Be Loved By You)




Jerry Garcia - guitar, vocals
Merl Saunders - keyboards, vocals
John Kahn - bass
Bill Kreutzmann - drums
Martin Fierro - flute, saxophone

guests:

Unknown conga player sits in for the show (possibly Armando Peraza)
Unknown guitarist sits in on La-La (possibly Paul Pena)



Notes:

- This recording has been provided by an anonymous source.
- Several clicks have been removed.
- The possible identity of the guest players has been lifted from "Jerry Garcia's Middle Finger"
  http://jgmf.blogspot.co.uk/2011/05/ln-jg1974-02-16jgmsallsbd.html
- IMHO This show is plagued by very good sound and even better playing 
- All files are tagged






shntool output:

    length     expanded size    cdr  WAVE problems  fmt   ratio  filename
     3:14.013      37250604 B   cxx   --   ---xx   flac  0.5728  jgms1974-02-16s1t01.flac
     2:37.373      30215724 B   cxx   --   ---xx   flac  0.3877  jgms1974-02-16s1t02.flac
    14:33.907     167790124 B   cxx   --   ---xx   flac  0.5606  jgms1974-02-16s1t03.flac
     2:49.400      32524844 B   cxx   --   ---xx   flac  0.3927  jgms1974-02-16s1t04.flac
     7:53.093      90833964 B   cxx   --   ---xx   flac  0.5593  jgms1974-02-16s1t05.flac
     1:38.187      18851884 B   cxx   --   ---xx   flac  0.3810  jgms1974-02-16s1t06.flac
    13:14.773     152596524 B   cxx   --   ---xx   flac  0.5623  jgms1974-02-16s1t07.flac
    14:59.653     172733484 B   cxx   --   ---xx   flac  0.5503  jgms1974-02-16s1t08.flac
     1:14.080      14223404 B   cxx   --   ---xx   flac  0.4197  jgms1974-02-16s1t09.flac
    11:29.520     132387884 B   cxx   --   ---xx   flac  0.5759  jgms1974-02-16s1t10.flac
     0:50.787       9751084 B   cxx   --   ---xx   flac  0.3939  jgms1974-02-16s2t01.flac
     9:48.360     112965164 B   cxx   --   ---xx   flac  0.5853  jgms1974-02-16s2t02.flac
     2:11.627      25272364 B   cxx   --   ---xx   flac  0.4013  jgms1974-02-16s2t03.flac
    14:18.560     164843564 B   cxx   --   ---xx   flac  0.5308  jgms1974-02-16s2t04.flac
     1:27.987      16893484 B   cxx   --   ---xx   flac  0.3959  jgms1974-02-16s2t05.flac
    12:30.720     144138284 B   cxx   --   ---xx   flac  0.5754  jgms1974-02-16s2t06.flac
     1:19.173      15201324 B   cxx   --   ---xx   flac  0.3905  jgms1974-02-16s2t07.flac
    15:37.427     179985964 B   cxx   --   ---xx   flac  0.5713  jgms1974-02-16s2t08.flac
     1:02.387      11978284 B   cxx   --   ---xx   flac  0.4074  jgms1974-02-16s2t09.flac
    10:33.693     121669164 B   cxx   --   ---xx   flac  0.5710  jgms1974-02-16s2t10.flac
   143:24.720    1652107120 B                            0.5455  (20 files)




More information about the bittorrent mailing list