[bittorrent] jgms1973-11-05.sbd.mr.dat(48k)

Automated Mailer noreply-bt.e at etree.org
Mon Aug 1 01:22:22 UTC 2016


Band:           Garcia
Torrent Name:   jgms1973-11-05.sbd.mr.dat(48k)
Uploaded by:    greendude
DB Link:        
Details:        http://bt.etree.org/details.php?id=587952

Contact the seeder at http://db.etree.org/greendude

If the link to this show does not work, it was probably removed for
being non-trade-friendly.

Description / text file:
-------------------------
-----THANKS TO ANONYMOUS-----


Jerry Garcia and Merl Saunders
Keystone
Berkeley, CA
11/05/1973



Source: sbd > master-reel > dat(48k)


    Jerry Garcia - guitar, vocals
    Merl Saunders - keyboards, vocals
    John Kahn - bass
    Bill Kreutzmann - drums

    Martin Fierro - saxophone, flute, vocals



Set I

01  //It's No Use
02  Finders Keepers
03  It's Too Late
04  Money Honey
05  I Second That Emotion//
06  //La La
07  The Night They Drove Old Dixie Down

Set II

08  The Harder They Come
09  (I'm A) Road Runner
10  Mystery Train
11  My Funny Valentine




Notes:

- this version has been provided by an anonymous source
- this (most excellent sounding) show has never circulated in any form 
- lots of level adjustments have been made
- several pops and clicks have been removed 
   (lots of nasty clicks on the left channel in 'lala' and 'dixie down' got eliminated)
- 60Hz hum has been reduced between all songs
- 'its no use' fades in and is missing a couple seconds
- the reel change between 'second that emotion' and 'lala' has been faded out and in
- all files are tagged








     length     expanded size    cdr  WAVE problems  fmt   ratio  filename
    10:31.827     121310764 B   cxx   --   ---xx   flac  0.6132  jg1973-11-05.s1t01_Its_No_Use.flac
     9:45.880     112489004 B   cxx   --   ---xx   flac  0.6208  jg1973-11-05.s1t02_Finders_Keepers.flac
    10:18.360     118725164 B   cxx   --   ---xx   flac  0.5526  jg1973-11-05.s1t03_Its_Too_Late.flac
     9:39.800     111321644 B   cxx   --   ---xx   flac  0.5908  jg1973-11-05.s1t04_Money_Honey.flac
     6:17.693      72517164 B   cxx   --   ---xx   flac  0.6003  jg1973-11-05.s1t05_I_Second_That_Emotion.flac
     4:57.120      57047084 B   cxx   --   ---xx   flac  0.5690  jg1973-11-05.s1t06_La_La.flac
     6:07.947      70645804 B   cxx   --   ---xx   flac  0.5568  jg1973-11-05.s1t07_The_Night_They_Drove_Old_Dixie_Down.flac
    16:53.000     194496044 B   cxx   --   ---xx   flac  0.5583  jg1973-11-05.s2t08_The_Harder_They_Come.flac
    16:40.173     192033324 B   cxx   --   ---xx   flac  0.5809  jg1973-11-05.s2t09_(Im_A)_Road_Runner.flac
    12:56.387     149066284 B   cxx   --   ---xx   flac  0.6218  jg1973-11-05.s2t10_Mystery_Train.flac
    19:05.545     219944752 B   cxx   --   ---xx   flac  0.6103  jg1973-11-05.s2t11_My_Funny_Valentine.flac
   123:13.732    1419597032 B                            0.5903  (11 files)




More information about the bittorrent mailing list