[bittorrent] jgms1973-10-11.sbd.mr.dat(48k)

Automated Mailer noreply-bt.e at etree.org
Mon Aug 1 01:13:47 UTC 2016


Band:           Garcia
Torrent Name:   jgms1973-10-11.sbd.mr.dat(48k)
Uploaded by:    greendude
DB Link:        
Details:        http://bt.etree.org/details.php?id=587949

Contact the seeder at http://db.etree.org/greendude

If the link to this show does not work, it was probably removed for
being non-trade-friendly.

Description / text file:
-------------------------
-----THANKS TO ANONYMOUS-----


Jerry Garcia and Merl Saunders
Keystone
Berkeley, CA
10/11/1973



Source: sbd > master-reel > dat(48k)


    Jerry Garcia - guitar, vocals
    Merl Saunders - keyboards, vocals
    John Kahn - bass
    Bill Vitt - drums



Set I

01  //Someday Baby
02  Honey Chile
03  When I Paint My Masterpiece
04  Mystery Train
05  The Night They Drove Old Dixie Down

Set II

03  I Second That Emotion
04  One Kind Favor
05  Sunshine Of My Life
06  The Harder They Come




Notes:

- this version has been provided by an anonymous source
- this (most excellent sounding) show has never circulated in any form 
- "Sunshine Of My Life" - performed once by Garcia/Saunders
- "I Second That Emotion" is missing a couple notes at the start of set 2
- lots of level adjustments have been made
- various artifacts have been removed and a number of other repairs have been done
- a light hum and crackle removement has been performed between some tracks 
- all files have been tagged









    length     expanded size    cdr  WAVE problems  fmt   ratio  filename
    10:09.213     116969004 B   cxx   --   ---xx   flac  0.5449  jgms1973-10-11.s1t01_Someday_Baby.flac
    13:49.147     159196204 B   cxx   --   ---xx   flac  0.5745  jgms1973-10-11.s1t02_Honey_Chile.flac
    11:50.360     136389164 B   cxx   --   ---xx   flac  0.5620  jgms1973-10-11.s1t03_When_I_Paint_My_Masterpiece.flac
    11:31.213     132713004 B   cxx   --   ---xx   flac  0.5768  jgms1973-10-11.s1t04_Mystery_Train.flac
     6:11.160      71262764 B   cxx   --   ---xx   flac  0.5643  jgms1973-10-11.s1t05_The_Night_They_Drove_Old_Dixie_Down.flac
    12:35.507     145057324 B   cxx   --   ---xx   flac  0.5877  jgms1973-10-11.s2t06_I_Second_That_Emotion.flac
    11:21.469     130842128 B   cxx   --   ---xx   flac  0.5757  jgms1973-10-11.s2t07_One_Kind_Favor.flac
    17:16.373     198983724 B   cxx   --   ---xx   flac  0.5747  jgms1973-10-11.s2t08_Sunshine_Of_My_Life.flac
    12:30.906     144173916 B   cxx   --   ---xx   flac  0.5896  jgms1973-10-11.s2t09_The_Harder_They_Come.flac
   107:15.348    1235587232 B                            0.5734  (9 files)






More information about the bittorrent mailing list