[bittorrent] jgms1973-09-06.sbd.mr.dat(48k)

Automated Mailer noreply-bt.e at etree.org
Mon Aug 1 01:10:19 UTC 2016


Band:           Garcia
Torrent Name:   jgms1973-09-06.sbd.mr.dat(48k)
Uploaded by:    greendude
DB Link:        
Details:        http://bt.etree.org/details.php?id=587948

Contact the seeder at http://db.etree.org/greendude

If the link to this show does not work, it was probably removed for
being non-trade-friendly.

Description / text file:
-------------------------
-----THANKS TO ANONYMOUS-----


Jerry Garcia and Merl Saunders
Capitol Theater
Passaic, NJ
09/06/1973



Source: sbd > master-reel > dat(48k)


    Jerry Garcia - guitar, vocals
    Merl Saunders - keyboards, vocals
    John Kahn - bass
    Bill Kreutzmann - drums



Set I

01  //It Takes A Lot To Laugh, It Takes A Train To Cry
02  Expressway (To Your Heart)
03  It's Too Late
04  One Kind Favor
05  After Midnight
06  The Night They Drove Old Dixie Down

Set 2

07  I Second That Emotion
08  It's No Use
09  Like A Road
10  //That's All Right, Mama
11  My Funny Valentine
12  Finders Keepers
13  The Harder They Come//
      [missing] Positively 4th Street
      [missing] How Sweet It Is (To Be Loved By You)




Notes:

- this version has been provided by an anonymous source
- this show has never circulated in soundboard quality before 
- level adjustments have been made
- several pops and clicks have been removed
- 60Hz hum has been reduced between all songs
- 'train to cry' and 'all right mama' fade in, 'harder they come' cuts at reel end 
- the reel change between 'after midnight' and 'dixie down' has been crossfaded
- all files are tagged










    length     expanded size    cdr  WAVE problems  fmt   ratio  filename
     6:19.200      72806444 B   cxx   --   ---xx   flac  0.5823  jg1973-09-06.s1t01_It_Takes_A_Lot_To_Laugh_It_Takes_A_Train_To_Cry.flac
    12:47.133     147289644 B   cxx   --   ---xx   flac  0.6087  jg1973-09-06.s1t02_Expressway(To_Your_Heart).flac
     8:51.867     102118444 B   cxx   --   ---xx   flac  0.5859  jg1973-09-06.s1t03_Its_Too_Late.flac
     9:46.480     112604204 B   cxx   --   ---xx   flac  0.5816  jg1973-09-06.s1t04_One_Kind_Favor.flac
     8:55.973     102906924 B   cxx   --   ---xx   flac  0.6169  jg1973-09-06.s1t05_After_Midnight.flac
     6:42.090      77201344 B   cxx   --   ---xx   flac  0.5599  jg1973-09-06.s1t06_The_Night_They_Drove_Old_Dixie_Down.flac
    11:27.693     132037164 B   cxx   --   ---xx   flac  0.5975  jg1973-09-06.s2t07_I_Second_That_Emotion.flac
    15:15.907     175854124 B   cxx   --   ---xx   flac  0.5664  jg1973-09-06.s2t08_Its_No_Use.flac
    11:59.867     138214444 B   cxx   --   ---xx   flac  0.5555  jg1973-09-06.s2t09_Like_A_Road.flac
    10:06.853     116515884 B   cxx   --   ---xx   flac  0.5824  jg1973-09-06.s2t10_Thats_All_Right_Mama.flac
    22:42.533     261606444 B   cxx   --   ---xx   flac  0.5931  jg1973-09-06.s2t11_My_Funny_Valentine.flac
     8:42.320     100285484 B   cxx   --   ---xx   flac  0.5843  jg1973-09-06.s2t12_Finders_Keepers.flac
     6:38.216      76457432 B   cxx   --   ---xx   flac  0.5781  jg1973-09-06.s2t13_The_Harder_They_Come.flac
   140:16.132    1615897980 B                            0.5849  (13 files)









More information about the bittorrent mailing list