[bittorrent] Nicki Bluhm and the Gramblers Pappy & Harriet's Pioneertown CA 2013-08-28

Automated Mailer noreply-bt.e at etree.org
Sat Aug 31 18:38:38 UTC 2013


Band:           Other
Torrent Name:   Nicki Bluhm and the Gramblers Pappy & Harriet's Pioneertown CA 2013-08-28
Uploaded by:    pseudo taper
DB Link:        
Details:        http://bt.etree.org/details.php?id=566521

Contact the seeder at http://db.etree.org/pseudo taper

If the link to this show does not work, it was probably removed for
being non-trade-friendly.

Description / text file:
-------------------------
Nicki Bluhm And The Gramblers
Pappy & Harriet's
Pioneertown, California
8/28/2013

Source: Tascam DR-100 (Cardioids)
FOB/DFC/AARP 35' From Stage, 6' High
DSP: Sound Card>Sound Forge 9.0>CD Wave>flac(16)
Recorded By: Jon Stone
Seeded By: Jon Stone
Coached, Assisted, and Encouraged By Z-Man!

Disc I 

01 Deep Water
02 Hey Stranger
03 Women's Prison
04 Nothing
05 ?
06 Im Your Woman >
07 Ravenous 
08 Wanna Go Home >
09 Reno >
10 Another R Song
11 Piece Of My Heart

Disc II 

01 Till I'm Blue
02 Check Your Head >
03 Little Too Late 
04 Burnt
05 Squeaky Wheel
06 Jetplane
Encore:
07 Thanks/Banter
08 Kill You To Call >
09 Sittin' On Top Of The World >
10 Kill You To Call >
11 Beer And Booze

nickibluhm2013-08-13d01t01.flac:53bd01ec14a4f39d9b7b7a559fc46f11
nickibluhm2013-08-13d01t02.flac:351ba1f1733862e1b82fcc812818fc5e
nickibluhm2013-08-13d01t03.flac:9d0044805a9449a52d283bdab3324512
nickibluhm2013-08-13d01t04.flac:a17a05d059173d05016689d5647ac4fb
nickibluhm2013-08-13d01t05.flac:72f0015ecdc6a652a0a2538a1b232588
nickibluhm2013-08-13d01t06.flac:dd7df6bd04a1410a30670d1a1541cbfb
nickibluhm2013-08-13d01t07.flac:beaae199f2da2578344b336db5f48448
nickibluhm2013-08-13d01t08.flac:89b7ce41e74dc7a5e0cc4b7f242ed371
nickibluhm2013-08-13d01t09.flac:543ccb07ba351d67eeeafbb3165f3a03
nickibluhm2013-08-13d01t10.flac:79939384e63015cac9fe4c0cc6c2dd19
nickibluhm2013-08-13d01t11.flac:9fbf32164cf9a7a7b6dfee391ebce1be
nickibluhm2013-08-13d02t01.flac:f3dc4dca42b360624bbad20fbe40b907
nickibluhm2013-08-13d02t02.flac:f0103f2c4556ea8854885a5843a05688
nickibluhm2013-08-13d02t03.flac:1fd1a100ebd21f9fb666a165a742cc1a
nickibluhm2013-08-13d02t04.flac:4ec06e79cb1ca3fd35385ed5ac0fb473
nickibluhm2013-08-13d02t05.flac:7bc00311c36cd5d34a2257d8db11d69b
nickibluhm2013-08-13d02t06.flac:e36418d55ea841760d089623efa5127e
nickibluhm2013-08-13d02t07.flac:db9393625f2ffd6d6295f3e7f336ed0f
nickibluhm2013-08-13d02t08.flac:5c570c1eadd429d38f7feb24d92113ae
nickibluhm2013-08-13d02t09.flac:af7f4a73744023322a87a2634639a01e
nickibluhm2013-08-13d02t10.flac:96d3ade01a0ee951fd82ab40797f965e

 length     expanded size    cdr  WAVE problems  fmt   ratio  filename
     3:56.23       41684540 B   ---   --   ---xx   flac  0.5208  nickibluhm2013-08-13d01t01.flac
     5:04.21       53675036 B   ---   --   ---xx   flac  0.5114  nickibluhm2013-08-13d01t02.flac
     5:39.62       59945468 B   ---   --   ---xx   flac  0.4896  nickibluhm2013-08-13d01t03.flac
     3:30.17       37084028 B   ---   --   ---xx   flac  0.5381  nickibluhm2013-08-13d01t04.flac
     5:40.37       60063068 B   ---   --   ---xx   flac  0.5402  nickibluhm2013-08-13d01t05.flac
     3:21.58       35592860 B   ---   --   ---xx   flac  0.5738  nickibluhm2013-08-13d01t06.flac
     4:43.03       49928300 B   ---   --   ---xx   flac  0.5826  nickibluhm2013-08-13d01t07.flac
     4:05.45       43323884 B   ---   --   ---xx   flac  0.4936  nickibluhm2013-08-13d01t08.flac
     3:45.73       39861740 B   ---   --   ---xx   flac  0.5742  nickibluhm2013-08-13d01t09.flac
     4:19.65       45840524 B   ---   --   ---xx   flac  0.5338  nickibluhm2013-08-13d01t10.flac
     4:59.69       52905932 B   ---   --   ---xx   flac  0.5598  nickibluhm2013-08-13d01t11.flac
     6:08.16       64952876 B   ---   --   ---xx   flac  0.4654  nickibluhm2013-08-13d02t01.flac
     3:36.58       38238860 B   ---   --   ---xx   flac  0.5036  nickibluhm2013-08-13d02t02.flac
     5:32.20       58611884 B   ---   --   ---xx   flac  0.5599  nickibluhm2013-08-13d02t03.flac
     9:23.49       99428492 B   ---   --   ---xx   flac  0.5380  nickibluhm2013-08-13d02t04.flac
     7:14.20       76604684 B   ---   --   ---xx   flac  0.5536  nickibluhm2013-08-13d02t05.flac
     5:58.38       63240620 B   ---   --   ---xx   flac  0.5475  nickibluhm2013-08-13d02t06.flac
     1:10.00       12348044 B   ---   --   ---xx   flac  0.3404  nickibluhm2013-08-13d02t07.flac
     2:57.03       31229900 B   ---   --   ---xx   flac  0.5601  nickibluhm2013-08-13d02t08.flac
     2:07.11       22428716 B   ---   --   ---xx   flac  0.5758  nickibluhm2013-08-13d02t09.flac
     4:43.56       50052956 B   ---   --   ---xx   flac  0.5468  nickibluhm2013-08-13d02t10.flac
    97:58.69     1037042412 B                            0.5338  (21 files)


















More information about the bittorrent mailing list