[bittorrent] Livingston Leo Brooklyn Bowl Brooklyn, New York 8/15/2013 (Schoeps CCM4V'S FOB)

Automated Mailer noreply-bt.e at etree.org
Fri Aug 30 18:23:23 UTC 2013


Band:           Other
Torrent Name:   Livingston Leo Brooklyn Bowl Brooklyn, New York 8/15/2013 (Schoeps CCM4V'S FOB)
Uploaded by:    zmanatl
DB Link:        
Details:        http://bt.etree.org/details.php?id=566507

Contact the seeder at http://db.etree.org/zmanatl

If the link to this show does not work, it was probably removed for
being non-trade-friendly.

Description / text file:
-------------------------
Livingston Leo
Brooklyn Bowl
Brooklyn, New York
8/15/2013

Source: Schoeps CCM4V'S(din)>Lunatec V2>Benchmark AD2K>
Sound Devices 722 (24/48)
FOB/DLFC/KFC/ZFC/AARP 14' From Stage, 7 1/2' High
DSP: Sound Devices 722>Sound Forge 9.0>CD Wave>flac(16)
Recorded By: Z-Man
Seeded By: Z-Man

Disc I 

01 ?
02 I Believe >
03 I Met A Girl
04 Little Sweetheqrt
05 Each Time
06 BBQ'n With My Baby
07 ?
08 Always A First Time
09 Band Introductions
10 I Need A Job >
11 ?
12 All I Wanna Do Is BBQ
13 It's The Gravy That Gets You

livingstonleo2013-08-15d01t02.flac:2ba0678859a21b9895424e0445748f93
livingstonleo2013-08-15d01t03.flac:4db7e0c4cc4e5debaa4bd2699a71d7c5
livingstonleo2013-08-15d01t04.flac:0041ff04bdcbeae2807d47c2201a6960
livingstonleo2013-08-15d01t05.flac:f8311861a291de4ddd664db6996c5e83
livingstonleo2013-08-15d01t06.flac:7ffb156fe17b95eef9d2c6417d6fc288
livingstonleo2013-08-15d01t07.flac:77743dfa1ed47a7d7b671b1910a503ed
livingstonleo2013-08-15d01t08.flac:76b328a8218b96d208f31ed4f5330587
livingstonleo2013-08-15d01t09.flac:1c847947fa087a8a1ac644166accd562
livingstonleo2013-08-15d01t10.flac:a4da1470ff8e8ab9f9d5f98d1c631285
livingstonleo2013-08-15d01t11.flac:78d7aff73e1fd55c9dfa88c3b94dd253
livingstonleo2013-08-15d01t12.flac:c0c225bd78f59a6378372261e199b831
livingstonleo2013-08-15d01t13.flac:1db361c891d4c4a66935694c7d7b7a22

  length     expanded size    cdr  WAVE problems  fmt   ratio  filename
     3:39.32       38706908 B   ---   --   ---xx   flac  0.5839  livingstonleo2013-08-15d01t02.flac
     1:26.55       15299804 B   ---   --   ---xx   flac  0.6006  livingstonleo2013-08-15d01t03.flac
     5:27.08       57701660 B   ---   --   ---xx   flac  0.4582  livingstonleo2013-08-15d01t04.flac
     5:07.07       54171308 B   ---   --   ---xx   flac  0.5039  livingstonleo2013-08-15d01t05.flac
     6:10.05       65279804 B   ---   --   ---xx   flac  0.4745  livingstonleo2013-08-15d01t06.flac
     5:08.38       54420620 B   ---   --   ---xx   flac  0.5680  livingstonleo2013-08-15d01t07.flac
     4:33.06       48171356 B   ---   --   ---xx   flac  0.5257  livingstonleo2013-08-15d01t08.flac
     0:29.14        5148572 B   ---   --   ---xx   flac  0.3731  livingstonleo2013-08-15d01t09.flac
     2:56.41       31142876 B   ---   --   ---xx   flac  0.5431  livingstonleo2013-08-15d01t10.flac
     3:56.40       41724524 B   ---   --   ---xx   flac  0.5538  livingstonleo2013-08-15d01t11.flac
     6:23.48       67674140 B   ---   --   ---xx   flac  0.4409  livingstonleo2013-08-15d01t12.flac
     5:40.35       60058364 B   ---   --   ---xx   flac  0.5408  livingstonleo2013-08-15d01t13.flac
    50:58.29      539499936 B                            0.5134  (12 files)














 













More information about the bittorrent mailing list