[bittorrent] Redbird Club Passim Cambridge, Massachusetts 8/13/2013 (Schoeps CCM4V'S FOB)

Automated Mailer noreply-bt.e at etree.org
Mon Aug 26 05:17:30 UTC 2013


Band:           Other
Torrent Name:   Redbird Club Passim Cambridge, Massachusetts 8/13/2013 (Schoeps CCM4V'S FOB)
Uploaded by:    zmanatl
DB Link:        
Details:        http://bt.etree.org/details.php?id=566450

Contact the seeder at http://db.etree.org/zmanatl

If the link to this show does not work, it was probably removed for
being non-trade-friendly.

Description / text file:
-------------------------
Redbird
Club Passim
Cambridge, Massachusetts
8/13/2013

Source: Schoeps CCM4V'S(din)>Lunatec V2>Benchmark AD2K>
Sound Devices 722 (24/48)
FOB/DRFC/KFC/ZFC/AARP Stage Lip, 6 1/2' High
DSP: Sound Devices 722>Sound Forge 9.0>CD Wave>flac(16)
Recorded By: Z-Man
Seeded By: Z-Man

Disc I 1st Set

01 Announcements And Introduction By Matt Smith
02 You Don't Have To Tell Me
03 We Deliver The Rain
04 Lone Me Your Blossoms To Hold
05 Band Introductions
06 Call Me The Breeze
07 ? 
08 On My Stars
09 ?
10 ?
11 ?
12 4 And 20 Blackbirds

Disc II 2nd Set

01 Banter 
02 Left This Town
03 ?
04 Old Fashioned Morphine
05 Looks Like Rain
06 Went Out Like A Flame
07 Havin' Such A Hard Time
08 ?
09 Quiet Blues
10 Like A Hurricane
11 Just Give Me Time To Learn To Crawl
12 Band Introductions
13 I Wanna Kow, Who Do You Think You Are
Encore:
14 Banter
15 Hard Times Come Again No More

Kris Delmhorst - Guitar, Fiddle, And Vocals
Peter Mulvey - Guitar And Vocals
Jeffrey Foucault - Guitar And Vocals
David Goodrich - Guitar And Vocals

redbird2013-08-13d01t01.flac:4300e979857c43b5effd525ec0794044
redbird2013-08-13d01t02.flac:efc3487154c801623bb472f436d5391c
redbird2013-08-13d01t03.flac:25c715260ca5dc93bcd6cca64e3010a0
redbird2013-08-13d01t04.flac:7754b90a8f969f91740a1118b3a538a4
redbird2013-08-13d01t05.flac:a5b20f22ba362c74c613a884450eda89
redbird2013-08-13d01t06.flac:338f125f2e00cfd6bc50103272191e9f
redbird2013-08-13d01t07.flac:5645c0fcf477b73373d1094fccf663be
redbird2013-08-13d01t08.flac:951d047679ab8e0faae4515706c693d7
redbird2013-08-13d01t09.flac:52ae4b3fa3ccd71a317f5390ae00c5c4
redbird2013-08-13d01t10.flac:a484bd69b64c2ae1f37375c4841b41ab
redbird2013-08-13d01t11.flac:23ba1e011da469330e61269b15f09037
redbird2013-08-13d01t12.flac:c0d4f7613204547df01c76a9c8ba6103
redbird2013-08-13d02t01.flac:a77b35aaff230f3fd54b1955bac98337
redbird2013-08-13d02t02.flac:81ffabe37f8e3ebc1156d6041c2c0e98
redbird2013-08-13d02t03.flac:4d8a31ac8516cc2e000a648bf405b402
redbird2013-08-13d02t04.flac:f974bbc377d6f66db85d86c9cb1b981d
redbird2013-08-13d02t05.flac:09b822c307548761a8289d6da311249d
redbird2013-08-13d02t06.flac:bf32011d604a7de0c719cc34dd2a4c11
redbird2013-08-13d02t07.flac:2a020dcf78a0078e87dfd9f2b1c1b90a
redbird2013-08-13d02t08.flac:20a234ce3b885642b67bb45ade5acc4c
redbird2013-08-13d02t09.flac:2558fd3a1c65c3805f175184da3be374
redbird2013-08-13d02t10.flac:17d6797def3a08e3414e8f06f58e4811
redbird2013-08-13d02t11.flac:495593fc1741a1be977bc334a2b46bcb
redbird2013-08-13d02t12.flac:38a672032ba11c45494dd21b18d8d418
redbird2013-08-13d02t13.flac:57bea2e09bab2ea70d1321af02b6b13b
redbird2013-08-13d02t14.flac:63e487cd12487df98723305056c6865e
redbird2013-08-13d02t15.flac:f92391de1974a2a6955f6bcde3f4f6dc

   length     expanded size    cdr  WAVE problems  fmt   ratio  filename
     2:48.26       29696396 B   ---   --   ---xx   flac  0.3991  redbird2013-08-13d01t01.flac
     3:56.31       41703356 B   ---   --   ---xx   flac  0.4678  redbird2013-08-13d01t02.flac
     4:19.01       45689996 B   ---   --   ---xx   flac  0.3645  redbird2013-08-13d01t03.flac
     4:29.69       47613932 B   ---   --   ---xx   flac  0.3499  redbird2013-08-13d01t04.flac
     0:55.10        9725564 B   ---   --   ---xx   flac  0.4395  redbird2013-08-13d01t05.flac
     5:32.42       58663628 B   ---   --   ---xx   flac  0.3653  redbird2013-08-13d01t06.flac
     5:56.18       62840780 B   ---   --   ---xx   flac  0.3932  redbird2013-08-13d01t07.flac
     5:02.00       53272844 B   ---   --   ---xx   flac  0.3443  redbird2013-08-13d01t08.flac
     4:29.64       47602172 B   ---   --   ---xx   flac  0.3985  redbird2013-08-13d01t09.flac
     6:40.15       70595324 B   ---   --   ---xx   flac  0.3074  redbird2013-08-13d01t10.flac
     6:12.26       65681996 B   ---   --   ---xx   flac  0.3653  redbird2013-08-13d01t11.flac
     3:39.55       38761004 B   ---   --   ---xx   flac  0.5016  redbird2013-08-13d01t12.flac
     0:42.68        7568780 B   ---   --   ---xx   flac  0.4091  redbird2013-08-13d02t01.flac
     3:33.20       37620284 B   ---   --   ---xx   flac  0.4523  redbird2013-08-13d02t02.flac
     4:10.27       44163548 B   ---   --   ---xx   flac  0.3144  redbird2013-08-13d02t03.flac
     5:10.66       54839276 B   ---   --   ---xx   flac  0.3944  redbird2013-08-13d02t04.flac
     5:56.03       62805500 B   ---   --   ---xx   flac  0.3056  redbird2013-08-13d02t05.flac
     5:09.09       54528812 B   ---   --   ---xx   flac  0.3132  redbird2013-08-13d02t06.flac
     6:45.39       71533772 B   ---   --   ---xx   flac  0.4230  redbird2013-08-13d02t07.flac
     4:13.55       44758604 B   ---   --   ---xx   flac  0.3043  redbird2013-08-13d02t08.flac
     3:41.08       39003260 B   ---   --   ---xx   flac  0.2715  redbird2013-08-13d02t09.flac
     5:52.11       62118716 B   ---   --   ---xx   flac  0.3550  redbird2013-08-13d02t10.flac
     4:04.63       43189820 B   ---   --   ---xx   flac  0.3133  redbird2013-08-13d02t11.flac
     0:40.22        7107788 B   ---   --   ---xx   flac  0.4689  redbird2013-08-13d02t12.flac
     3:30.49       37159292 B   ---   --   ---xx   flac  0.4824  redbird2013-08-13d02t13.flac
     1:39.62       17609468 B   ---   --   ---xx   flac  0.3712  redbird2013-08-13d02t14.flac
     5:24.12       57181868 B   ---   --   ---xx   flac  0.3437  redbird2013-08-13d02t15.flac
   114:36.46     1213035780 B                            0.3684  (27 files)






 



More information about the bittorrent mailing list