[bittorrent] Lettuce - 2013-08-23 - Cannery Ballroom - Nashville, TN. *Matrix*

Automated Mailer noreply-bt.e at etree.org
Sun Aug 25 21:26:05 UTC 2013


Band:           Other
Torrent Name:   Lettuce - 2013-08-23 - Cannery Ballroom - Nashville, TN. *Matrix*
Uploaded by:    mmedley
DB Link:        
Details:        http://bt.etree.org/details.php?id=566438

Contact the seeder at http://db.etree.org/mmedley

If the link to this show does not work, it was probably removed for
being non-trade-friendly.

Description / text file:
-------------------------
Lettuce
2013-08-23
Cannery Ballroom
Nashville, TN. 


***16bit Source***


Source: SBD + Schoeps MK4V > KC5 > CMC6 > Sound Devices 722T (24bit/48kHz)
Location: FOB / DFC / 8ft
Transfer: 744T > HDD > Wavelab 6.1 (DSP/Crystal Re-Sampler/MBit+ Dither/Fades) > CDWave > TLH > FLAC (8)
Taped, Transferred & Seeded by Martin Medley


One Set:

01. Intro
02. Monorail 3000
03. Blast Off
04. ? > Niggas In Paris > Madison Square >
05. By Any Shmeeans Necessary
06. Yakatori
07. ?
08. Apache
09. Slipping Into Darkness
10. Sam Huff's Flying Rage Machine
11. Bowler
12. Ziggowatt
13. The Dump
14. Mr. Yancey > Workinonit > Mr. Yancey
15. Lettsanity

Encore:

16. The Payback (feat. James Casey on vox)
17. Last Suppit



shntool info:

    length     expanded size    cdr  WAVE problems  fmt   ratio  filename
     0:35.21        6223436 B   ---   --   ---xx   flac  0.4131  lettuce2013-08-23t01.flac
     2:46.34       29362412 B   ---   --   ---xx   flac  0.6354  lettuce2013-08-23t02.flac
     5:11.41       54956876 B   ---   --   ---xx   flac  0.6690  lettuce2013-08-23t03.flac
     7:21.41       77888876 B   ---   --   ---xx   flac  0.6570  lettuce2013-08-23t04.flac
     9:14.49       97840892 B   ---   --   ---xx   flac  0.6338  lettuce2013-08-23t05.flac
     6:54.29       73097852 B   ---   --   ---xx   flac  0.6334  lettuce2013-08-23t06.flac
     4:25.01       46748396 B   ---   --   ---xx   flac  0.6089  lettuce2013-08-23t07.flac
     3:56.06       41644556 B   ---   --   ---xx   flac  0.6556  lettuce2013-08-23t08.flac
     9:32.40      100994924 B   ---   --   ---xx   flac  0.6158  lettuce2013-08-23t09.flac
     6:42.04       70922252 B   ---   --   ---xx   flac  0.6337  lettuce2013-08-23t10.flac
     3:52.23       40978940 B   ---   --   ---xx   flac  0.6286  lettuce2013-08-23t11.flac
     6:19.66       67010876 B   ---   --   ---xx   flac  0.6283  lettuce2013-08-23t12.flac
     8:51.02       93673148 B   ---   --   ---xx   flac  0.5689  lettuce2013-08-23t13.flac
    14:18.04      151360652 B   ---   --   ---xx   flac  0.6147  lettuce2013-08-23t14.flac
     9:24.46       99597836 B   ---   --   ---xx   flac  0.6014  lettuce2013-08-23t15.flac
     7:07.34       75402812 B   ---   --   ---xx   flac  0.6173  lettuce2013-08-23t16.flac
    10:45.69      113940332 B   ---   --   ---xx   flac  0.6112  lettuce2013-08-23t17.flac
   117:18.60     1241645068 B                            0.6207  (17 files)




More information about the bittorrent mailing list