[bittorrent] gd84-05-07.088850.sbd.sirmick.t-flac16

Automated Mailer noreply-bt.e at etree.org
Fri Aug 23 11:18:31 UTC 2013


Band:           Grateful Dead
Torrent Name:   gd84-05-07.088850.sbd.sirmick.t-flac16
Uploaded by:    germain
DB Link:        http://db.etree.org/shn/88850
Details:        http://bt.etree.org/details.php?id=566399

Contact the seeder at http://db.etree.org/germain

If the link to this show does not work, it was probably removed for
being non-trade-friendly.

Description / text file:
-------------------------
This is a tagged version of shnid: 88850

Grateful Dead
May 7, 1984
Silva Hall, Hult Center,
Eugene, OR

source: sbd >dat x 2 > wav > shnn > wav > flac

Thanks to "S" Productions for this source

edited & mastered
SIRMick
November 2007
__________________________________________________________________________________________

--Set 1--
101-d1t01 - Iko Iko
102-d1t02 - C C Rider
103-d1t03 - Loser
104-d1t04 - Happy Birthday Billy
105-d1t05 - Mama Tried ->
106-d1t06 - Big River
107-d1t07 - Bird Song
108-d1t08 - My Brother Esau -> 
109-d1t09 - Deal

--Set 2--
201-d1t10 - China Cat Sunflower -> 
202-d1t11 - I Know You Rider
203-d2t01 - tuning
204-d2t02 - Estimated Prophet ->
205-d2t03 - Eyes Of the World ->
206-d2t04 - Drums ->
207-d2t05 - Space ->
208-d2t06 - The Wheel ->
209-d2t07 - Throwing Stones ->
210-d2t08 - Not Fade Away

--Encore-- 
211-d2t09 - It's All Over Now, Baby Blue
__________________________________________________________________________________________

notes:

known problems
- small amount missing in the transition from Drums into Space
- when listening with headphones be very careful with the volume, or Phil might do 
  permanent damage to your eardrums!

-seamless change between discs
__________________________________________________________________________________________

Tagging notes:
Show information is embedded within the header of each flac file. 
It will display on any player capable of directly playing flac 
files. If converted to wav during processing, all tags will be 
stripped, however audio data will remain unaffected. If you must 
transcode to a lossy format, do so directly Flac > Lossy.
Use ffp to validate audio integrity.
Md5 values will change if tagging is altered.
B. Proctor 8-27-12
__________________________________________________________________________________________

shntool output:

    length     expanded size   cdr  WAVE problems filename
     7:37.23       80668940    ---   --   ---xx   gd1984-05-07d1t01.flac
     8:08.32       86158508    ---   --   ---xx   gd1984-05-07d1t02.flac
     7:13.03       76388300    ---   --   ---xx   gd1984-05-07d1t03.flac
     0:32.53        5769500    ---   --   ---xx   gd1984-05-07d1t04.flac
     2:27.24       25987292    ---   --   ---xx   gd1984-05-07d1t05.flac
     6:21.17       67248428    ---   --   ---xx   gd1984-05-07d1t06.flac
    11:56.44      126405932    ---   --   ---xx   gd1984-05-07d1t07.flac
     5:12.10       55060364    ---   --   ---xx   gd1984-05-07d1t08.flac
     8:53.23       94075340    ---   --   ---xx   gd1984-05-07d1t09.flac
     7:26.52       78796748    ---   --   ---xx   gd1984-05-07d1t10.flac
     7:21.57       77926508    ---   --   ---xx   gd1984-05-07d1t11.flac
     0:51.47        9106988    ---   --   ---xx   gd1984-05-07d2t01.flac
    11:35.14      122630972    ---   --   ---xx   gd1984-05-07d2t02.flac
    15:05.68      159801980    ---   --   ---xx   gd1984-05-07d2t03.flac
    10:48.04      114316652    ---   --   ---xx   gd1984-05-07d2t04.flac
     6:56.12       73410668    ---   --   ---xx   gd1984-05-07d2t05.flac
     5:35.05       59105804    ---   --   ---xx   gd1984-05-07d2t06.flac
     8:45.71       92777036    ---   --   ---xx   gd1984-05-07d2t07.flac
     8:31.41       90236876    ---   --   ---xx   gd1984-05-07d2t08.flac
     7:21.48       77905340    ---   --   ---xx   gd1984-05-07d2t09.flac
   148:41.48     1573778176 B                     (totals for 20 files, 0.5546 overall compression ratio)




More information about the bittorrent mailing list