[bittorrent] Floodwood Peach Festival Montage Mountain Scranton, Pennslvania 8-17-2013 (Schoeps CCM4V'S FOB)

Automated Mailer noreply-bt.e at etree.org
Thu Aug 22 15:21:04 UTC 2013


Band:           Other
Torrent Name:   Floodwood Peach Festival Montage Mountain Scranton, Pennslvania 8-17-2013 (Schoeps CCM4V'S FOB)
Uploaded by:    zmanatl
DB Link:        
Details:        http://bt.etree.org/details.php?id=566388

Contact the seeder at http://db.etree.org/zmanatl

If the link to this show does not work, it was probably removed for
being non-trade-friendly.

Description / text file:
-------------------------
Floodwood
Peach Festival
Montage Mountain
Scranton, Pennsylvania
8/17/2013

Source: Schoeps CCM4V'S(din)>Lunatec V2>Benchmark AD2K>
Sound Devices 722 (24/48)
FOB/DFC/KFC/ZFC/AARP Section 102, Row Z, Between Seats 15 & 16, 9' High
DSP: Sound Devices 722>Sound Forge 9.0>CD Wave>flac(16)
Recorded By: Z-Man
Seeded By: Z-Man

Disc I 

01 Greeting
02 Roll On
03 ?
04 In The Gravelyard
05 Anyone But Me
06 ?
07 Long Way To Virginia
08 ?
09 Magnolia Road
10 ?
11 Revolving Door
12 Spoonfit
13 I Know You Rider >
14 ?

floodwood2013-08-17d01t01.flac:9d61dd86504811a5577706f7043d2121
floodwood2013-08-17d01t02.flac:56bbaacdabf60a417541d97259250f89
floodwood2013-08-17d01t03.flac:fd6413ebc94f0554f905649e12e071a4
floodwood2013-08-17d01t04.flac:d2d2e6712583c3aec8603afad37134e6
floodwood2013-08-17d01t05.flac:d1041a56217aa8722ea90fcd3585ce63
floodwood2013-08-17d01t06.flac:aa2b2880fe4d5984ac1e0a0d972551dd
floodwood2013-08-17d01t07.flac:10ad25b8d876144d705ebf1d6abae398
floodwood2013-08-17d01t08.flac:dd45177073b167941d93ebad760ad6a7
floodwood2013-08-17d01t09.flac:0b94ce2b46fb2f53d32e929945d46bf9
floodwood2013-08-17d01t10.flac:13c1354e01b4ac93ad2a368fc4b9c223
floodwood2013-08-17d01t11.flac:b7f7ea91138f3fd9becd3b314fe006d5
floodwood2013-08-17d01t12.flac:67476b4934f9be706821ab9fb4596d2b
floodwood2013-08-17d01t13.flac:c99682040b479ab9e246843ac049cd5c
floodwood2013-08-17d01t14.flac:f7acca865e4e59b1875e43c6d6024f29

length     expanded size    cdr  WAVE problems  fmt   ratio  filename
     1:28.69       15685532 B   ---   --   ---xx   flac  0.3415  floodwood2013-08-17d01t01.flac
     4:25.45       46851884 B   ---   --   ---xx   flac  0.4932  floodwood2013-08-17d01t02.flac
     3:21.70       35621084 B   ---   --   ---xx   flac  0.4926  floodwood2013-08-17d01t03.flac
     4:43.29       49989452 B   ---   --   ---xx   flac  0.4801  floodwood2013-08-17d01t04.flac
     4:41.34       49648412 B   ---   --   ---xx   flac  0.5032  floodwood2013-08-17d01t05.flac
     4:28.31       47348156 B   ---   --   ---xx   flac  0.4638  floodwood2013-08-17d01t06.flac
     4:23.15       46428524 B   ---   --   ---xx   flac  0.4375  floodwood2013-08-17d01t07.flac
     6:44.07       71282108 B   ---   --   ---xx   flac  0.4865  floodwood2013-08-17d01t08.flac
     3:56.00       41630444 B   ---   --   ---xx   flac  0.4739  floodwood2013-08-17d01t09.flac
     4:49.03       50986700 B   ---   --   ---xx   flac  0.4285  floodwood2013-08-17d01t10.flac
     5:38.08       59642060 B   ---   --   ---xx   flac  0.4443  floodwood2013-08-17d01t11.flac
     5:18.27       56158748 B   ---   --   ---xx   flac  0.4728  floodwood2013-08-17d01t12.flac
     3:18.49       35042492 B   ---   --   ---xx   flac  0.4961  floodwood2013-08-17d01t13.flac
     3:44.01       39515996 B   ---   --   ---xx   flac  0.4864  floodwood2013-08-17d01t14.flac
    61:01.13      645831592 B                            0.4694  (14 files)





 







More information about the bittorrent mailing list