[bittorrent] Karl Denson's Tiny Universe Peach Festival Scranton, Pennsylvania 8/17/2013 (Schoeps CCM4V'S FOB)

Automated Mailer noreply-bt.e at etree.org
Thu Aug 22 15:16:43 UTC 2013


Band:           Karl Denson's Tiny Universe
Torrent Name:   Karl Denson's Tiny Universe Peach Festival Scranton, Pennsylvania 8/17/2013 (Schoeps CCM4V'S FOB)
Uploaded by:    zmanatl
DB Link:        
Details:        http://bt.etree.org/details.php?id=566387

Contact the seeder at http://db.etree.org/zmanatl

If the link to this show does not work, it was probably removed for
being non-trade-friendly.

Description / text file:
-------------------------
Karl Denson's Tiny Universe
Peach Festival
Montage Mountain
Scranton, Pennsylvania
8/17/2013

Source: Schoeps CCM4V'S(din)>Lunatec V2>Benchmark AD2K>
Sound Devices 722 (24/48)
FOB/DFC/KFC/ZFC/AARP Section 102, Row Z, Between Seats 15 & 16, 9' High
DSP: Sound Devices 722>Sound Forge 9.0>CD Wave>flac(16)
Recorded By: Z-Man
Seeded By: Z-Man

Disc I 

01 Greeting
02 My Baby Don't Know Me >
03 ?
04 Drum Solo >
05 Slow Down New York City
06 Give Me That Funky Stuff
07 Everybody Knows That
08 Light My Fire
09 ? >
10 Flute Dolo >
11 Why Don't You Check Out Your Mind
12 The Clap

kdtu2013-08-17d01t01.flac:81225956a62db1c27a321fae31359b3f
kdtu2013-08-17d01t02.flac:819daa02e04ef9bd94d8b471102b7afc
kdtu2013-08-17d01t03.flac:e8cb241524f15a44b0be3e226ed4d9c2
kdtu2013-08-17d01t04.flac:035720b8b526912181aa4aef388455bd
kdtu2013-08-17d01t05.flac:b89661c3a520af7853e789bc673c8769
kdtu2013-08-17d01t06.flac:131ae9b87a01e5edb703f1b7e88d72ac
kdtu2013-08-17d01t07.flac:5b8795c76a5b2274c02be147be0925d5
kdtu2013-08-17d01t08.flac:389687e2b9657c98741025362fe77413
kdtu2013-08-17d01t09.flac:e28aa09749802eaf47c9469cabfa9412
kdtu2013-08-17d01t10.flac:424731d295b166f12f37885d2df8465e
kdtu2013-08-17d01t11.flac:5bc114a819c71ec74d790ef3d3fdb11a
kdtu2013-08-17d01t12.flac:c3f2923c31b443eb38cefbf19d14952c

 length     expanded size    cdr  WAVE problems  fmt   ratio  filename
     0:47.04        8300252 B   ---   --   ---xx   flac  0.3243  kdtu2013-08-17d01t01.flac
     6:26.43       68191580 B   ---   --   ---xx   flac  0.5629  kdtu2013-08-17d01t02.flac
     9:10.06       97034156 B   ---   --   ---xx   flac  0.5544  kdtu2013-08-17d01t03.flac
     2:26.64       25904972 B   ---   --   ---xx   flac  0.4405  kdtu2013-08-17d01t04.flac
     7:19.13       77470220 B   ---   --   ---xx   flac  0.5544  kdtu2013-08-17d01t05.flac
     8:47.39       93054572 B   ---   --   ---xx   flac  0.4980  kdtu2013-08-17d01t06.flac
     3:39.50       38749244 B   ---   --   ---xx   flac  0.5428  kdtu2013-08-17d01t07.flac
     4:16.51       45278396 B   ---   --   ---xx   flac  0.5083  kdtu2013-08-17d01t08.flac
     6:50.49       72439292 B   ---   --   ---xx   flac  0.5683  kdtu2013-08-17d01t09.flac
     2:03.41       21793676 B   ---   --   ---xx   flac  0.4272  kdtu2013-08-17d01t10.flac
     7:19.61       77583116 B   ---   --   ---xx   flac  0.5312  kdtu2013-08-17d01t11.flac
     4:32.36       48065516 B   ---   --   ---xx   flac  0.5008  kdtu2013-08-17d01t12.flac
    63:40.07      673864992 B                            0.5274  (12 files)


 















More information about the bittorrent mailing list