[bittorrent] Royal Southern Brotherhood Peach Festival Montage Mountain Scranton, Pennsylvania 8/17/2013 (Schoeps CCM4V'S FOB)

Automated Mailer noreply-bt.e at etree.org
Thu Aug 22 04:47:27 UTC 2013


Band:           Other
Torrent Name:   Royal Southern Brotherhood Peach Festival Montage Mountain Scranton, Pennsylvania 8/17/2013 (Schoeps CCM4V'S FOB)
Uploaded by:    zmanatl
DB Link:        
Details:        http://bt.etree.org/details.php?id=566383

Contact the seeder at http://db.etree.org/zmanatl

If the link to this show does not work, it was probably removed for
being non-trade-friendly.

Description / text file:
-------------------------
Royal Southern Brotherhood
Peach Festival
Montage Mountain
Scranton, Pennsylvania
8/17/2013

Source: Schoeps CCM4V'S(din)>Lunatec V2>Benchmark AD2K>
Sound Devices 722 (24/48)
FOB/DFC/KFC/ZFC/AARP Section 102, Row Z, Between Seats 15 & 16, 9' High
DSP: Sound Devices 722>Sound Forge 9.0>CD Wave>flac(16)
Recorded By: Z-Man
Seeded By: Z-Man

Disc I 

01 ? >
02 Drum Solo >
03 ?
04 ?
05 ?
06 Left My Heart In Memphis
07 Fire On The Mountain
08 Band Introductions
09 Natural Born Lover >
10 ?
11 ?
12 Drum Solo >
13 ? 
14 Gimme Shelter

rsb2013-08-17d01t01.flac:e8bb6a1558bd0f1ba3509583d8246b72
rsb2013-08-17d01t02.flac:a1502711d86b81c434fea581dc46ea1c
rsb2013-08-17d01t03.flac:714f017ed7ee1005c8d4d29036736768
rsb2013-08-17d01t04.flac:25790285fcd1658101db8e137e89c9fd
rsb2013-08-17d01t05.flac:010a52d022f5508109d5c221cc9997e6
rsb2013-08-17d01t06.flac:c31d2deee945327a5332e2a5d60e5794
rsb2013-08-17d01t07.flac:5e4d8c8a1175cefac895ea7561172006
rsb2013-08-17d01t08.flac:b322c25b5b5ee9dd7244cc2d2f4558a1
rsb2013-08-17d01t09.flac:cfdfab9614c044fe1a8fe7bbb2225b04
rsb2013-08-17d01t10.flac:9f23e1e34213811b2ee97a9a2f98051c
rsb2013-08-17d01t11.flac:fa43114fcd35034a2d7c66c800670512
rsb2013-08-17d01t12.flac:8fee77e5b6867452a8214dd9c0841ee5
rsb2013-08-17d01t13.flac:4cc811f61eca4b5cf99b7a59444d2cab
rsb2013-08-17d01t14.flac:5ae5f02d6586ba0ba67366627ef33e83

 length     expanded size    cdr  WAVE problems  fmt   ratio  filename
     3:56.06       41644556 B   ---   --   ---xx   flac  0.5210  rsb2013-08-17d01t01.flac
     0:48.45        8573084 B   ---   --   ---xx   flac  0.4974  rsb2013-08-17d01t02.flac
     2:01.64       21494972 B   ---   --   ---xx   flac  0.5428  rsb2013-08-17d01t03.flac
     4:54.38       51951020 B   ---   --   ---xx   flac  0.5499  rsb2013-08-17d01t04.flac
     5:25.01       57332396 B   ---   --   ---xx   flac  0.5301  rsb2013-08-17d01t05.flac
     4:09.15       43958924 B   ---   --   ---xx   flac  0.4507  rsb2013-08-17d01t06.flac
    14:44.21      155987036 B   ---   --   ---xx   flac  0.5317  rsb2013-08-17d01t07.flac
     1:03.39       11204972 B   ---   --   ---xx   flac  0.4695  rsb2013-08-17d01t08.flac
     5:42.53       60453500 B   ---   --   ---xx   flac  0.5556  rsb2013-08-17d01t09.flac
     4:46.04       50459852 B   ---   --   ---xx   flac  0.5710  rsb2013-08-17d01t10.flac
     4:35.12       48538268 B   ---   --   ---xx   flac  0.5445  rsb2013-08-17d01t11.flac
     1:03.16       11150876 B   ---   --   ---xx   flac  0.4916  rsb2013-08-17d01t12.flac
     1:46.11       18724316 B   ---   --   ---xx   flac  0.5676  rsb2013-08-17d01t13.flac
     7:12.66       76360076 B   ---   --   ---xx   flac  0.5465  rsb2013-08-17d01t14.flac
    62:09.16      657833848 B                            0.5340  (14 files)



















 

















More information about the bittorrent mailing list