[bittorrent] gd84-04-30.091165.senn421.pauline.miller.t-flac16

Automated Mailer noreply-bt.e at etree.org
Wed Aug 21 11:32:40 UTC 2013


Band:           Grateful Dead
Torrent Name:   gd84-04-30.091165.senn421.pauline.miller.t-flac16
Uploaded by:    germain
DB Link:        http://db.etree.org/shn/91165
Details:        http://bt.etree.org/details.php?id=566369

Contact the seeder at http://db.etree.org/germain

If the link to this show does not work, it was probably removed for
being non-trade-friendly.

Description / text file:
-------------------------
This is a tagged version of shnid: 91165

Grateful Dead  
April 30, 1984
Nassau Coliseum 
Uniondale, NY

Recording Info:
Sennheiser 421 -> Cassette Master (Sony D5M/Maxell XLIIS-90)

Transfer Info:
Cassette Master (Nakamichi DR-1) -> Sound Devices 744T (24bit/96k) ->
Samplitude Professional v10.02 -> FLAC/16
(3 Discs Audio / 2 Discs FLAC)

All Transfers and Mastering By Charlie Miller
charliemiller87 at earthlink.net
March 19, 2008

Patch Info:
Sennheiser 441 -> Cassette Master -> CD (shnid=5302) supplies:
Deal (0:00 - 0:06)
Drums (5:33 - end of track)
Space (0:00 - 1:35)
Not Fade Away (5:47 - end of track)
Brokedown palace (4:29 - end of track)

Notes:
-- Set 2 is seamless
-- Recorded By Rick Pauline
-- Show will fit on 2 discs if you move disc change
____________________________________________________________________________________

--Set 1--
101-d1t01 - Tuning
102-d1t02 - Iko Iko
103-d1t03 - Greatest Story Ever Told
104-d1t04 - Althea ->
105-d1t05 - New Minglewood Blues
106-d1t06 - Row Jimmy
107-d1t07 - My Brother Esau
108-d1t08 - Deal

--Set 2--
201-d2t01 - I Need a Miracle ->
202-d2t02 - Bertha ->
203-d2t03 - Looks Like Rain ->
204-d2t04 - He's Gone ->
205-d2t05 - Drums ->
206-d3t01 - Space ->
207-d3t02 - The Other One ->
208-d3t03 - China Doll ->
209-d3t04 - Throwing Stones ->
210-d3t05 - Not Fade Away

--Encore--
211-d3t06 - Brokedown Palace
____________________________________________________________________________________

Tagging notes:
Show information is embedded within the header of each flac file. 
It will display on any player capable of directly playing flac 
files. If converted to wav during processing, all tags will be 
stripped, however audio data will remain unaffected. If you must 
transcode to a lossy format, do so directly Flac > Lossy.
Use ffp to validate audio integrity.
Md5 values will change if tagging is altered.
B. Proctor 8-26-12
____________________________________________________________________________________

SHNTOOL OUTPUT:
    length     expanded size   cdr  WAVE problems filename
     0:53.17        9389228    ---   --   -----   gd84-04-30d1t01.wav
     6:22.40       67478924    ---   --   -----   gd84-04-30d1t02.wav
     4:02.40       42782924    ---   --   -----   gd84-04-30d1t03.wav
     8:11.67       86770028    ---   --   -----   gd84-04-30d1t04.wav
     9:06.24       96370892    ---   --   -----   gd84-04-30d1t05.wav
    10:17.31      108911756    ---   --   -----   gd84-04-30d1t06.wav
     5:01.17       53136428    ---   --   -----   gd84-04-30d1t07.wav
     8:36.12       91050668    ---   --   -----   gd84-04-30d1t08.wav
     4:07.12       43599068    ---   --   -----   gd84-04-30d2t01.wav
     6:00.54       63631052    ---   --   -----   gd84-04-30d2t02.wav
     8:02.61       85168316    ---   --   -----   gd84-04-30d2t03.wav
    14:54.69      157863932    ---   --   -----   gd84-04-30d2t04.wav
     8:47.52       93085148    ---   --   -----   gd84-04-30d2t05.wav
    13:13.37      139972268    ---   --   -----   gd84-04-30d3t01.wav
     9:17.04       98264252    ---   --   -----   gd84-04-30d3t02.wav
     5:45.21       60907436    ---   --   -----   gd84-04-30d3t03.wav
     8:46.68       92946380    ---   --   -----   gd84-04-30d3t04.wav
     8:13.41       87061676    ---   --   -----   gd84-04-30d3t05.wav
     5:21.12       56652668    ---   --   -----   gd84-04-30d3t06.wav
   145:02.04     1535043044 B                     (totals for 19 files)




More information about the bittorrent mailing list