[bittorrent] Grace Potter And The Nocturnals Peach Festival Montage Mountain Scranton. Pennsylvania 8/16/2013 (Schoeps CCM4V'S FOB)

Automated Mailer noreply-bt.e at etree.org
Tue Aug 20 13:32:35 UTC 2013


Band:           Grace Potter and the Nocturnals
Torrent Name:   Grace Potter And The Nocturnals Peach Festival Montage Mountain Scranton. Pennsylvania 8/16/2013 (Schoeps CCM4V'S FOB)
Uploaded by:    zmanatl
DB Link:        
Details:        http://bt.etree.org/details.php?id=566349

Contact the seeder at http://db.etree.org/zmanatl

If the link to this show does not work, it was probably removed for
being non-trade-friendly.

Description / text file:
-------------------------
Grace Potter And The Nocturnals
Peach Festival
Montage Mountain
Scranton, Pennsylvania
8/16/2013

Source: Schoeps CCM4V'S(din)>Lunatec V2>Benchmark AD2K>
Sound Devices 722 (24/48)
FOB/DFC/KFC/ZFC/AARP Section 102, Row Y, Between Seats 12 & 13, 6 1/2' High
DSP: Sound Devices 722>Sound Forge 9.0>CD Wave>flac(16)
Recorded By: Z-Man
Seeded By: Z-Man

Disc I 

01 Intro Jam >
02 Stop The Bus >
03 Turntable
04 One Short Night
05 Goodbye Kiss
06 Low Road
07 Cocaine >
08 Sugar
09 Band Introductions/Banter
10 *Mystery Train

Disc II 

01 Can't Look At The Stars >
02 I Got The Medicine >
03 The Divide >
04 #Nothin' But The Water Part I >
05 @Nothin' But The Water Part II >
06 Down By The River >
07 The Lion, The Beast, The Best >
08 Paris (Ooh La La) >
09 ^Drum Solo

* Acoustic
# Grace Solo 
@ First Half Was Grace Solo
^ Entire Band On Percussion

grace2013-08-16d01t01.flac:a5a1b658bd2f97452ec905754211b2f9
grace2013-08-16d01t02.flac:03f8456584d798341fd16523e3ca4e4a
grace2013-08-16d01t03.flac:ded2cc7f3e25da350092e30719e74372
grace2013-08-16d01t04.flac:24562f461ad8a2e70230fc4b754e4549
grace2013-08-16d01t05.flac:fe6931a9063473086d03ebaf0b03f25c
grace2013-08-16d01t06.flac:d8d0b37f5c9a22c874412fda42f0195c
grace2013-08-16d01t07.flac:76fd5f520b93ba5c696bfa066c54c4ef
grace2013-08-16d01t08.flac:717ad8ae29db5fd5f796f14084a9e66d
grace2013-08-16d01t09.flac:d5a2256815c80837e5750d9e9f034160
grace2013-08-16d01t10.flac:0fa7ecb1d19adafd696f90deb153d9b5
grace2013-08-16d02t01.flac:284ca97138d0b481147abda448804c13
grace2013-08-16d02t02.flac:aad7e6512a30d1a92e760fb8f54a2175
grace2013-08-16d02t03.flac:4cfc18506fc5d9a0d4d870a398b5543c
grace2013-08-16d02t04.flac:eed302f2bef0b797d10aa454aea704c9
grace2013-08-16d02t05.flac:d0e8a0af92039f94b11af39e81321bb6
grace2013-08-16d02t06.flac:dcbd71d73c28237489c021af84162d5f
grace2013-08-16d02t07.flac:abb21167421d9f970ee52b6f47722a23
grace2013-08-16d02t08.flac:07c6fc89dd6bafeda146846decdb461b
grace2013-08-16d02t09.flac:6e3dcdeee78d3fab2433ce6ba56daca8

length     expanded size    cdr  WAVE problems  fmt   ratio  filename
     0:42.38        7498220 B   ---   --   ---xx   flac  0.3713  grace2013-08-16d01t01.flac
     6:12.19       65665532 B   ---   --   ---xx   flac  0.5089  grace2013-08-16d01t02.flac
     5:39.62       59945468 B   ---   --   ---xx   flac  0.4887  grace2013-08-16d01t03.flac
     4:30.44       47731532 B   ---   --   ---xx   flac  0.4750  grace2013-08-16d01t04.flac
     4:03.13       42895820 B   ---   --   ---xx   flac  0.4778  grace2013-08-16d01t05.flac
     5:29.32       58110908 B   ---   --   ---xx   flac  0.4604  grace2013-08-16d01t06.flac
     3:10.39       33607772 B   ---   --   ---xx   flac  0.4852  grace2013-08-16d01t07.flac
     7:19.74       77613692 B   ---   --   ---xx   flac  0.4824  grace2013-08-16d01t08.flac
     1:22.19       14509532 B   ---   --   ---xx   flac  0.4415  grace2013-08-16d01t09.flac
     4:03.42       42964028 B   ---   --   ---xx   flac  0.5153  grace2013-08-16d01t10.flac
     4:15.07       44998508 B   ---   --   ---xx   flac  0.4445  grace2013-08-16d02t01.flac
     5:02.27       53336348 B   ---   --   ---xx   flac  0.5163  grace2013-08-16d02t02.flac
     6:23.20       67608284 B   ---   --   ---xx   flac  0.5031  grace2013-08-16d02t03.flac
     2:42.68       28736780 B   ---   --   ---xx   flac  0.4374  grace2013-08-16d02t04.flac
    10:17.53      108963500 B   ---   --   ---xx   flac  0.5015  grace2013-08-16d02t05.flac
     9:55.62      105103868 B   ---   --   ---xx   flac  0.4927  grace2013-08-16d02t06.flac
     5:10.23       54738140 B   ---   --   ---xx   flac  0.5159  grace2013-08-16d02t07.flac
     3:36.37       38189468 B   ---   --   ---xx   flac  0.5412  grace2013-08-16d02t08.flac
     2:26.50       25872044 B   ---   --   ---xx   flac  0.5154  grace2013-08-16d02t09.flac
    92:24.54      978089444 B                            0.4913  (19 files)






























More information about the bittorrent mailing list