[bittorrent] gd84-04-29.091146.senn421.pauline.miller.t-flac16

Automated Mailer noreply-bt.e at etree.org
Tue Aug 20 13:29:08 UTC 2013


Band:           Grateful Dead
Torrent Name:   gd84-04-29.091146.senn421.pauline.miller.t-flac16
Uploaded by:    germain
DB Link:        http://db.etree.org/shn/91146
Details:        http://bt.etree.org/details.php?id=566348

Contact the seeder at http://db.etree.org/germain

If the link to this show does not work, it was probably removed for
being non-trade-friendly.

Description / text file:
-------------------------
This is a tagged version of shnid: 91146

Grateful Dead 
April 29, 1984
Nassau Coliseum 
Uniondale, NY

Recording Info:
Sennheiser 421 -> Cassette Master (Sony D5M/Maxell XLIIS-90)

Transfer Info:
Cassette Master (Nakamichi DR-1) -> Sound Devices 744T (24bit/96k) ->
Samplitude Professional v10.02 -> FLAC/16
(3 Discs Audio / 2 Discs FLAC)

All Transfers and Mastering By Charlie Miller
charliemiller87 at earthlink.net
March 19, 2008

Notes:
-- Set 2 disc change is seamless
-- Recorded By Rick Pauline
-- Almost all of Drums were cut on the master tape
_________________________________________________________________________________________

--Set 1--
101-d1t01 - Feel Like a Stranger
102-d1t02 - Friend of the Devil
103-d1t03 - C C Rider
104-d1t04 - Bird Song
105-d1t05 - Hell in a Bucket
106-d1t06 - West L.A. Fadeaway
107-d1t07 - Cassidy
108-d1t08 - Ramble on Rose
109-d1t09 - Let It Grow

--Set 2--
201-d2t01 - China Cat Sunflower ->
202-d2t02 - I Know You Rider ->
203-d2t03 - Samson & Delilah
204-d2t04 - Terrapin Station ->
205-d2t05 - Don't Need Love ->
206-d2t06 - Drums>>
207-d3t01 - <<Space ->
208-d3t02 - Truckin' ->
209-d3t03 - Stella Blue ->
210-d3t04 - Sugar Magnolia

--Encore--
211-d3t05 - Keep Your Day Job
_________________________________________________________________________________________

Tagging notes:
Show information is embedded within the header of each flac file. 
It will display on any player capable of directly playing flac 
files. If converted to wav during processing, all tags will be 
stripped, however audio data will remain unaffected. If you must 
transcode to a lossy format, do so directly Flac > Lossy.
Use ffp to validate audio integrity.
Md5 values will change if tagging is altered.
B. Proctor 8-26-12
_________________________________________________________________________________________

SHNTOOL OUTPUT:
    length     expanded size   cdr  WAVE problems filename
     9:30.30      100618604    ---   --   -----   gd84-04-29d1t01.wav
     8:32.65       90469724    ---   --   -----   gd84-04-29d1t02.wav
     9:07.14       96523772    ---   --   -----   gd84-04-29d1t03.wav
    11:37.41      123047276    ---   --   -----   gd84-04-29d1t04.wav
     6:31.02       68977148    ---   --   -----   gd84-04-29d1t05.wav
     8:01.44       84951932    ---   --   -----   gd84-04-29d1t06.wav
     6:23.67       67718828    ---   --   -----   gd84-04-29d1t07.wav
     6:38.30       70277804    ---   --   -----   gd84-04-29d1t08.wav
    12:20.01      130538396    ---   --   -----   gd84-04-29d1t09.wav
     6:42.30       70983404    ---   --   -----   gd84-04-29d2t01.wav
     5:45.47       60968588    ---   --   -----   gd84-04-29d2t02.wav
     7:16.01       76912796    ---   --   -----   gd84-04-29d2t03.wav
    19:20.00      204624044    ---   --   -----   gd84-04-29d2t04.wav
     6:15.59       66288812    ---   --   -----   gd84-04-29d2t05.wav
     0:50.13        8850620    ---   --   -----   gd84-04-29d2t06.wav
    16:15.33      172067660    ---   --   -----   gd84-04-29d3t01.wav
     6:52.64       72827372    ---   --   -----   gd84-04-29d3t02.wav
     7:52.04       83270252    ---   --   -----   gd84-04-29d3t03.wav
     9:04.05       95973404    ---   --   -----   gd84-04-29d3t04.wav
     4:16.70       45323084    ---   --   -----   gd84-04-29d3t05.wav
   169:14.20     1791213520 B                     (totals for 20 files)




More information about the bittorrent mailing list