[bittorrent] Greensky Bluegrass Peach Festival Montage Mountain Scranton, Pennsylvania 8/18/2013 (Schoeps CCM4V'S FOB)

Automated Mailer noreply-bt.e at etree.org
Tue Aug 20 03:40:22 UTC 2013


Band:           Greensky Bluegrass
Torrent Name:   Greensky Bluegrass Peach Festival Montage Mountain Scranton, Pennsylvania 8/18/2013 (Schoeps CCM4V'S FOB)
Uploaded by:    zmanatl
DB Link:        
Details:        http://bt.etree.org/details.php?id=566325

Contact the seeder at http://db.etree.org/zmanatl

If the link to this show does not work, it was probably removed for
being non-trade-friendly.

Description / text file:
-------------------------
Greensky Bluegrass
Peach Festival
Montage Mountain
Scranton, Pennsylvania
8/18/2013

Source: Schoeps CCM4V'S(din)>Lunatec V2>Benchmark AD2K>
Sound Devices 722 (24/48)
FOB/DFC/KFC/ZFC/AARP Section 102, Row R, Between Seats 10 & 11, 7 1/2' High
DSP: Sound Devices 722>Sound Forge 9.0>CD Wave>flac(16)
Recorded By: Z-Man
Seeded By: Z-Man

Disc I 

01 Greeting
02 Ain't No Bread In The Breadbox
03 Don't Lie
04 Leap Year
05 ?
06 ?
07 Lose My Way
08 ?
09 Jay Walkin' >
10 Light Up Or Leave Me Alone

gsbg2013-08-18d01t01.flac:79b08b4f0817c396f661dddb1b69276c
gsbg2013-08-18d01t02.flac:43b85c9e69508dfe4edf64c8520717e3
gsbg2013-08-18d01t03.flac:af971b15496e91c4ba89bf1d93c7f4de
gsbg2013-08-18d01t04.flac:466c16b52eedde3edaec2e0a4e9808a5
gsbg2013-08-18d01t05.flac:ec8e4c670de248d8a49c4aa701089178
gsbg2013-08-18d01t06.flac:a7d54674ec0e350500c3c50d57f19621
gsbg2013-08-18d01t07.flac:0b1024d011db4b7aac4c31b4a3cf1375
gsbg2013-08-18d01t08.flac:bcf04b72d8297dd1815e59557d4c009a
gsbg2013-08-18d01t09.flac:775d051985aa65f426c11c85fb1c879f
gsbg2013-08-18d01t10.flac:e026118812e4fda08ce7844d9595850d

 length     expanded size    cdr  WAVE problems  fmt   ratio  filename
     0:30.55        5421404 B   ---   --   ---xx   flac  0.3183  gsbg2013-08-18d01t01.flac
     7:11.50       76146044 B   ---   --   ---xx   flac  0.4581  gsbg2013-08-18d01t02.flac
     9:23.14       99346172 B   ---   --   ---xx   flac  0.4741  gsbg2013-08-18d01t03.flac
     4:58.19       52611932 B   ---   --   ---xx   flac  0.4675  gsbg2013-08-18d01t04.flac
     3:39.68       38791580 B   ---   --   ---xx   flac  0.4479  gsbg2013-08-18d01t05.flac
     7:18.48       77376140 B   ---   --   ---xx   flac  0.4585  gsbg2013-08-18d01t06.flac
    10:07.33      107152460 B   ---   --   ---xx   flac  0.4544  gsbg2013-08-18d01t07.flac
     3:53.10       41124764 B   ---   --   ---xx   flac  0.4580  gsbg2013-08-18d01t08.flac
     5:10.08       54702860 B   ---   --   ---xx   flac  0.4580  gsbg2013-08-18d01t09.flac
     6:06.10       64585964 B   ---   --   ---xx   flac  0.4965  gsbg2013-08-18d01t10.flac
    58:19.15      617259320 B                            0.4630  (10 files)































More information about the bittorrent mailing list