[bittorrent] Bob Weir Solo Acoustic Peach Festival Montage Mountain Scranton, Pennsylvania 8/18/2013 (Schoeps CCM4V'S FOB)

Automated Mailer noreply-bt.e at etree.org
Mon Aug 19 06:47:56 UTC 2013


Band:           Ratdog
Torrent Name:   Bob Weir Solo Acoustic Peach Festival Montage Mountain Scranton, Pennsylvania 8/18/2013 (Schoeps CCM4V'S FOB)
Uploaded by:    zmanatl
DB Link:        
Details:        http://bt.etree.org/details.php?id=566299

Contact the seeder at http://db.etree.org/zmanatl

If the link to this show does not work, it was probably removed for
being non-trade-friendly.

Description / text file:
-------------------------
Bob Weir Solo Acoustic
Peach Festival
Montage Mountain
Scranton, Pennsylvania
8/18/2013

Source: Schoeps CCM4V'S(din)>Lunatec V2>Benchmark AD2K>
Sound Devices 722 (24/48)
FOB/DFC/KFC/ZFC/AARP Section 102, Row R, Between Seats 10 & 11, 7 1/2' High
DSP: Sound Devices 722>Sound Forge 9.0>CD Wave>flac(16)
Recorded By: Z-Man
Seeded By: Z-Man

Disc I 

01 Bob Banter
02 Walkin' Blues
03 Me And My Uncle
04 City Girls X 2 (Aborted By Bob)
05 Big Bad Blues >
06 Loose Lucy
07 City Girls
08 K.C Moan
09 *Peggy-O
10 *Playin' In The Band >
11 *Standin' On Shaky Ground

* With Steve Kimock On Guitar

bobweir2013-08-18d01t01.flac:6dbc2ea177bedd0713b9e86966408133
bobweir2013-08-18d01t02.flac:f264a78a838e94ab2a951f2f4de3e020
bobweir2013-08-18d01t03.flac:c400123c9df7e48fd14073b30194531b
bobweir2013-08-18d01t04.flac:66a86228609d3c8eca9e3bc953192e8a
bobweir2013-08-18d01t05.flac:a0b89d64ec48ae325419f98a64eb3c72
bobweir2013-08-18d01t06.flac:dabf966cd9087b98203e92af77b94dd6
bobweir2013-08-18d01t07.flac:8ada9ed71f0aa8632fbd37112ad24880
bobweir2013-08-18d01t08.flac:06a35c1ba372d9f0dbe226b403a1e04a
bobweir2013-08-18d01t09.flac:e3ae56939b6a7aaddb4797b99e11931d
bobweir2013-08-18d01t10.flac:b13cf065b12cdcbe3f6880aa8e34a60b
bobweir2013-08-18d01t11.flac:d5fd5f9d889119c8d1f4fd6143068c12

  length     expanded size    cdr  WAVE problems  fmt   ratio  filename
     0:44.04        7771052 B   ---   --   ---xx   flac  0.4295  bobweir2013-08-18d01t01.flac
     6:28.59       68582012 B   ---   --   ---xx   flac  0.4647  bobweir2013-08-18d01t02.flac
     4:19.34       45767612 B   ---   --   ---xx   flac  0.4959  bobweir2013-08-18d01t03.flac
     1:46.04       18707852 B   ---   --   ---xx   flac  0.4509  bobweir2013-08-18d01t04.flac
     6:24.48       67850540 B   ---   --   ---xx   flac  0.4343  bobweir2013-08-18d01t05.flac
     8:35.19       90890732 B   ---   --   ---xx   flac  0.4840  bobweir2013-08-18d01t06.flac
     5:25.23       57384140 B   ---   --   ---xx   flac  0.4450  bobweir2013-08-18d01t07.flac
     5:16.28       55808300 B   ---   --   ---xx   flac  0.4359  bobweir2013-08-18d01t08.flac
     8:07.08       85925660 B   ---   --   ---xx   flac  0.4117  bobweir2013-08-18d01t09.flac
    10:02.74      106366892 B   ---   --   ---xx   flac  0.4082  bobweir2013-08-18d01t10.flac
     8:10.34       86516012 B   ---   --   ---xx   flac  0.4811  bobweir2013-08-18d01t11.flac
    65:20.35      691570804 B                            0.4484  (11 files)


















More information about the bittorrent mailing list