[bittorrent] Black Crowes Peach Festival Montage Mountain Scranton, Pennsylvania 8/18/2013 (Schoeps CCM4V'S FOB)

Automated Mailer noreply-bt.e at etree.org
Mon Aug 19 06:26:57 UTC 2013


Band:           Black Crowes
Torrent Name:   Black Crowes Peach Festival Montage Mountain Scranton, Pennsylvania 8/18/2013 (Schoeps CCM4V'S FOB)
Uploaded by:    zmanatl
DB Link:        
Details:        http://bt.etree.org/details.php?id=566298

Contact the seeder at http://db.etree.org/zmanatl

If the link to this show does not work, it was probably removed for
being non-trade-friendly.

Description / text file:
-------------------------
Black Crowes
Peach Festival
Montage Mountain
Scranton, Pennsylvania
8/18/2013

Source: Schoeps CCM4V'S(din)>Lunatec V2>Benchmark AD2K>
Sound Devices 722 (24/48)
FOB/DFC/KFC/ZFC/AARP Section 102, Row Z, Between Seats 13 & 14, 7 1/2' High
DSP: Sound Devices 722>Sound Forge 9.0>CD Wave>flac(16)
Recorded By: Z-Man
Seeded By: Z-Man

Disc I 

01 Movin' On Down The Line
02 Sting Me
03 Black Moon Creeping
04 High Head Blues
05 Medicated Goo
06 Another Roadside Tragedy
07 *Just Like Tom Thumb's Blues

Disc II 

01 Ballad Of Urgency
02 Wiser Time
03 Shine Along
04 She Talks To Angels
05 Thorn In My Pride
06 Remedy
07 Hard To Handle >
08 Hush >
09 Hard To Handle  

* With Bob Weir On Guitar And Vocals

blackcrowes2013-08-18d01t01.flac:52c71b8ceda4cac787546e97f7790cda
blackcrowes2013-08-18d01t02.flac:e3491425103e69466e02be9cdbe7a907
blackcrowes2013-08-18d01t03.flac:ea4c0641c76b03470886bbb6ca2e49a0
blackcrowes2013-08-18d01t04.flac:9d26fe55f67f5446fb44a117ec38dd04
blackcrowes2013-08-18d01t05.flac:d641ef50ccac11ce17918534a6a5c15c
blackcrowes2013-08-18d01t06.flac:a58c05d452e2cae83022f06cac1733f2
blackcrowes2013-08-18d01t07.flac:b99619a871051a3483127937bdc341bc
blackcrowes2013-08-18d02t01.flac:c3e576b10bc1f4b3414308d7250082b3
blackcrowes2013-08-18d02t02.flac:575350a828c50224f79c8f7dada81f81
blackcrowes2013-08-18d02t03.flac:dde98138981cf11ac4b838ac0a6ee548
blackcrowes2013-08-18d02t04.flac:3cd32214a7d40e27400cfbcd56f3d5c5
blackcrowes2013-08-18d02t05.flac:ddb5b08affd65c3f55779fdf5eab0bda
blackcrowes2013-08-18d02t06.flac:bd381d1f6066734db124d9ece629923d
blackcrowes2013-08-18d02t07.flac:cfd760ceab21e27e97a3f82c8829dd6f
blackcrowes2013-08-18d02t08.flac:de8d82e672ee70a1dd6cd6b4b4e319a6
blackcrowes2013-08-18d02t09.flac:9d544bc69ed5b205a327756de8254439

length     expanded size    cdr  WAVE problems  fmt   ratio  filename
     7:55.36       83874716 B   ---   --   ---xx   flac  0.4770  blackcrowes2013-08-18d01t01.flac
     4:45.36       50358716 B   ---   --   ---xx   flac  0.5015  blackcrowes2013-08-18d01t02.flac
     5:43.08       60524060 B   ---   --   ---xx   flac  0.4801  blackcrowes2013-08-18d01t03.flac
     7:11.61       76171916 B   ---   --   ---xx   flac  0.4421  blackcrowes2013-08-18d01t04.flac
     6:20.26       67093196 B   ---   --   ---xx   flac  0.4684  blackcrowes2013-08-18d01t05.flac
     9:56.11      105160316 B   ---   --   ---xx   flac  0.4406  blackcrowes2013-08-18d01t06.flac
     8:48.15       93174524 B   ---   --   ---xx   flac  0.4304  blackcrowes2013-08-18d01t07.flac
    11:13.26      118778396 B   ---   --   ---xx   flac  0.4291  blackcrowes2013-08-18d02t01.flac
    16:22.24      173281292 B   ---   --   ---xx   flac  0.4400  blackcrowes2013-08-18d02t02.flac
     5:08.32       54406508 B   ---   --   ---xx   flac  0.4298  blackcrowes2013-08-18d02t03.flac
     6:35.45       69783884 B   ---   --   ---xx   flac  0.4158  blackcrowes2013-08-18d02t04.flac
    17:14.28      182463500 B   ---   --   ---xx   flac  0.4404  blackcrowes2013-08-18d02t05.flac
     5:50.09       61761212 B   ---   --   ---xx   flac  0.4946  blackcrowes2013-08-18d02t06.flac
     4:46.32       50525708 B   ---   --   ---xx   flac  0.4849  blackcrowes2013-08-18d02t07.flac
     3:24.72       36154988 B   ---   --   ---xx   flac  0.5142  blackcrowes2013-08-18d02t08.flac
     1:23.73       14812940 B   ---   --   ---xx   flac  0.4283  blackcrowes2013-08-18d02t09.flac
   122:40.09     1298325872 B                            0.4512  (16 files)
















More information about the bittorrent mailing list