[bittorrent] gd1979-09-01.akg.stankiewicz.125463.flac2496

Automated Mailer noreply-bt.e at etree.org
Sun Aug 18 14:34:37 UTC 2013


Band:           Grateful Dead
Torrent Name:   gd1979-09-01.akg.stankiewicz.125463.flac2496
Uploaded by:    nfagdtrfb
DB Link:        http://db.etree.org/shn/125463
Details:        http://bt.etree.org/details.php?id=566262

Contact the seeder at http://db.etree.org/nfagdtrfb

If the link to this show does not work, it was probably removed for
being non-trade-friendly.

Description / text file:
-------------------------
GRATEFUL DEAD
Holleder Stadium
Rochester NY
09-01-1979

24bit/96kHz file-set

s1t01 Mississippi Half Step >
s1t02 Franklin's Tower
s1t03 Me & My Uncle >
s1t04 Big River
s1t05 Friend of the Devil
s1t06 Looks Like Rain
s1t07 Don't Ease Me In
s1t08 Lost Sailor >
s1t09 Saint of Circumstance

s2t01 Scarlet Begonias >
s2t02 Fire on the Mountain >
s2t03 Drums >
s2t04 Space >
s2t05 Wharf Rat >
s2t06 I Need a Miracle >
s2t07 Bertha >
s2t08 Good Lovin'
s2t09 crowd
s2t10 Encore: One More Saturday Night

AUD: 2x AKG D222E > Nakamichi 550, FOB center aprx 20 feet from the stage.

Transfer: MAC > Nakamichi 1000-II > Sound Devices USB Pre-2 > WAV 2496.

Edits: WAV 2496 > Wavelab > CD-Wave (24bit output) > TLH > FLAC 2496 tagged.

Concert recording & transfer by Richie Stankiewicz, edits by Andrew F. August 2013.

Notes: Upgrades ID-10363. ID-119964 patches Fire 4:10 > 4:30 and Drums 7:38 > Space 2:13.

    length     expanded size    cdr  WAVE problems  fmt   ratio  filename
    10:18.200     356083244 B   cxx   --   ---xx   flac  0.6029  gd1979-09-01s1t01.flac
    11:03.827     382364204 B   cxx   --   ---xx   flac  0.6044  gd1979-09-01s1t02.flac
     3:12.773     111037484 B   cxx   --   ---xx   flac  0.6137  gd1979-09-01s1t03.flac
     5:42.747     197422124 B   cxx   --   ---xx   flac  0.6228  gd1979-09-01s1t04.flac
     9:47.462     338378294 B   cxx   --   ---xx   flac  0.5893  gd1979-09-01s1t05.flac
     7:48.067     269606444 B   cxx   --   ---xx   flac  0.5762  gd1979-09-01s1t06.flac
     3:50.360     132687404 B   cxx   --   ---xx   flac  0.5907  gd1979-09-01s1t07.flac
     6:41.413     231214124 B   cxx   --   ---xx   flac  0.5794  gd1979-09-01s1t08.flac
     6:45.399     233509826 B   cxx   --   ---xx   flac  0.6106  gd1979-09-01s1t09.flac
    13:35.400     469670444 B   cxx   --   ---xx   flac  0.6799  gd1979-09-01s2t01.flac
    16:35.253     573265964 B   cxx   --   ---xx   flac  0.6926  gd1979-09-01s2t02.flac
     8:55.733     308582444 B   cxx   --   ---xx   flac  0.6726  gd1979-09-01s2t03.flac
     5:31.272     190812926 B   cxx   --   ---xx   flac  0.6687  gd1979-09-01s2t04.flac
    10:13.373     353303084 B   cxx   --   ---xx   flac  0.6510  gd1979-09-01s2t05.flac
     4:36.787     159429164 B   cxx   --   ---xx   flac  0.6688  gd1979-09-01s2t06.flac
     7:12.187     248939564 B   cxx   --   ---xx   flac  0.6691  gd1979-09-01s2t07.flac
     6:43.120     232197164 B   cxx   --   ---xx   flac  0.6771  gd1979-09-01s2t08.flac
     1:45.453      60741164 B   cxx   --   ---xx   flac  0.5895  gd1979-09-01s2t09.flac
     5:00.412     173037608 B   cxx   --   ---xx   flac  0.6722  gd1979-09-01s2t10.flac
   145:19.239    5022282674 B                            0.6393  (19 files)

No errors occured.




More information about the bittorrent mailing list