[bittorrent] gd1979-09-01.akg.stankiewicz.125464.flac1644

Automated Mailer noreply-bt.e at etree.org
Sun Aug 18 14:34:32 UTC 2013


Band:           Grateful Dead
Torrent Name:   gd1979-09-01.akg.stankiewicz.125464.flac1644
Uploaded by:    nfagdtrfb
DB Link:        http://db.etree.org/shn/125464
Details:        http://bt.etree.org/details.php?id=566261

Contact the seeder at http://db.etree.org/nfagdtrfb

If the link to this show does not work, it was probably removed for
being non-trade-friendly.

Description / text file:
-------------------------
GRATEFUL DEAD
Holleder Stadium
Rochester NY
09-01-1979

16bit/44.1kHz file-set

s1t01 Mississippi Half Step >
s1t02 Franklin's Tower
s1t03 Me & My Uncle >
s1t04 Big River
s1t05 Friend of the Devil
s1t06 Looks Like Rain
s1t07 Don't Ease Me In
s1t08 Lost Sailor >
s1t09 Saint of Circumstance

s2t01 Scarlet Begonias >
s2t02 Fire on the Mountain >
s2t03 Drums >
s2t04 Space >
s2t05 Wharf Rat >
s2t06 I Need a Miracle >
s2t07 Bertha >
s2t08 Good Lovin'
s2t09 crowd
s2t10 Encore: One More Saturday Night

AUD: 2x AKG D222E > Nakamichi 550, FOB center aprx 20 feet from the stage.

Transfer: MAC > Nakamichi 1000-II > Sound Devices USB Pre-2 > WAV 2496.

Edits: WAV 2496 > Wavelab > R8Brain > CD-Wave > TLH > FLAC 1644 tagged.

Concert recording & transfer by Richie Stankiewicz, edits by Andrew F. August 2013.

Notes: Upgrades ID-10363. ID-119964 patches Fire 4:10 > 4:30 and Drums 7:38 > Space 2:13.

CDRs: Overburn Second Set to 80:26, or put crowd & OMSN tracks on end of First Set.

    length     expanded size    cdr  WAVE problems  fmt   ratio  filename
    10:18.14      109048172 B   ---   --   ---xx   flac  0.6207  gd1979-09-01s1t01.flac
    11:03.63      117101420 B   ---   --   ---xx   flac  0.6277  gd1979-09-01s1t02.flac
     3:12.60       34009964 B   ---   --   ---xx   flac  0.6508  gd1979-09-01s1t03.flac
     5:42.54       60455852 B   ---   --   ---xx   flac  0.6624  gd1979-09-01s1t04.flac
     9:47.34      103626812 B   ---   --   ---xx   flac  0.5953  gd1979-09-01s1t05.flac
     7:48.05       82567004 B   ---   --   ---xx   flac  0.5653  gd1979-09-01s1t06.flac
     3:50.27       40635548 B   ---   --   ---xx   flac  0.5887  gd1979-09-01s1t07.flac
     6:41.33       70814060 B   ---   --   ---xx   flac  0.5703  gd1979-09-01s1t08.flac
     6:45.28       71507900 B   ---   --   ---xx   flac  0.6299  gd1979-09-01s1t09.flac
    13:35.30      143836604 B   ---   --   ---xx   flac  0.6344  gd1979-09-01s2t01.flac
    16:35.19      175562732 B   ---   --   ---xx   flac  0.6688  gd1979-09-01s2t02.flac
     8:55.55       94503404 B   ---   --   ---xx   flac  0.6216  gd1979-09-01s2t03.flac
     5:31.21       58437836 B   ---   --   ---xx   flac  0.5862  gd1979-09-01s2t04.flac
    10:13.28      108199100 B   ---   --   ---xx   flac  0.5625  gd1979-09-01s2t05.flac
     4:36.59       48825212 B   ---   --   ---xx   flac  0.6023  gd1979-09-01s2t06.flac
     7:12.14       76237772 B   ---   --   ---xx   flac  0.6060  gd1979-09-01s2t07.flac
     6:43.09       71110412 B   ---   --   ---xx   flac  0.6255  gd1979-09-01s2t08.flac
     1:45.34       18602012 B   ---   --   ---xx   flac  0.4454  gd1979-09-01s2t09.flac
     5:00.31       52992956 B   ---   --   ---xx   flac  0.6171  gd1979-09-01s2t10.flac
   145:19.18     1538074772 B                            0.6142  (19 files)

No errors occured.




More information about the bittorrent mailing list