[bittorrent] Ratdog Peach Festival Montage Mountain Scranton, Pennsylvania 8/17/2013 (Schoeps CCM4V'S FOB)

Automated Mailer noreply-bt.e at etree.org
Sun Aug 18 07:52:40 UTC 2013


Band:           Ratdog
Torrent Name:   Ratdog Peach Festival Montage Mountain Scranton, Pennsylvania 8/17/2013 (Schoeps CCM4V'S FOB)
Uploaded by:    zmanatl
DB Link:        
Details:        http://bt.etree.org/details.php?id=566256

Contact the seeder at http://db.etree.org/zmanatl

If the link to this show does not work, it was probably removed for
being non-trade-friendly.

Description / text file:
-------------------------
Ratdog
Peach Festival
Montage Mountain
Scranton, Pennsylvania
8/17/2013

Source: Schoeps CCM4V'S(din)>Lunatec V2>Benchmark AD2K>
Sound Devices 722 (24/48)
FOB/DFC/KFC/ZFC/AARP Section 102, Row Z, Between Seats 15 & 16, 9' High
DSP: Sound Devices 722>Sound Forge 9.0>CD Wave>flac(16)
Recorded By: Z-Man
Seeded By: Z-Man

Disc I 

01 Tuning
02 Jam >
03 Bird Song >
04 Jack Straw >
05 West LA Fadeaway >
06 Cassidy >

Disc II 

01 Dark Star >
02 Even So >
03 October Queen >
04 The Other One >
05 Piano Solo >
06 Days Between >
07 Two Dginn >
08 Not Fade Away

ratdog2013-08-17d01t01.flac:fea0dc2598fdf4cd5dc54a1e0ed436b2
ratdog2013-08-17d01t02.flac:7d61f97078d1176f6bc7b92da8758e6a
ratdog2013-08-17d01t03.flac:af6efb9e60e92c483f2ca34b4db7714b
ratdog2013-08-17d01t04.flac:6b06224eb45b592bfb8fe7d65d5da9e0
ratdog2013-08-17d01t05.flac:da74e074e062981a7a7c4231fa93ce51
ratdog2013-08-17d01t06.flac:ee7c68f00d35582e0041b078b67ebe60
ratdog2013-08-17d02t01.flac:181fba6ec9fe3e85caf9c85f92c1af0b
ratdog2013-08-17d02t02.flac:b45dad2651d1ce63945c61eaf094e55e
ratdog2013-08-17d02t03.flac:d5d2b78b4ff66bd974df5bae289b804e
ratdog2013-08-17d02t04.flac:1a7173e9ce1b99a6c054eb152dc6217d
ratdog2013-08-17d02t05.flac:344e18c9d0575b29dcdf1844a4ebceff
ratdog2013-08-17d02t06.flac:ca0f7ef8905141e31ffcb3d825ab5360
ratdog2013-08-17d02t07.flac:9b360b074b55d4ad126ba9c7115272c3
ratdog2013-08-17d02t08.flac:b0f6dfd79793caa3ad547cd3f67ee7ff

 length     expanded size    cdr  WAVE problems  fmt   ratio  filename
     1:44.06       18359756 B   ---   --   ---xx   flac  0.3502  ratdog2013-08-17d01t01.flac
     1:54.53       20234300 B   ---   --   ---xx   flac  0.4507  ratdog2013-08-17d01t02.flac
    12:24.16      131279276 B   ---   --   ---xx   flac  0.4775  ratdog2013-08-17d01t03.flac
     8:58.08       94922060 B   ---   --   ---xx   flac  0.5028  ratdog2013-08-17d01t04.flac
    10:50.27      114723548 B   ---   --   ---xx   flac  0.5029  ratdog2013-08-17d01t05.flac
     9:04.59       96100412 B   ---   --   ---xx   flac  0.4888  ratdog2013-08-17d01t06.flac
     7:26.17       78714428 B   ---   --   ---xx   flac  0.4696  ratdog2013-08-17d02t01.flac
     9:00.02       95260748 B   ---   --   ---xx   flac  0.4557  ratdog2013-08-17d02t02.flac
     9:58.18      105529580 B   ---   --   ---xx   flac  0.4836  ratdog2013-08-17d02t03.flac
     7:34.39       80177372 B   ---   --   ---xx   flac  0.5323  ratdog2013-08-17d02t04.flac
     1:48.68       19211180 B   ---   --   ---xx   flac  0.3743  ratdog2013-08-17d02t05.flac
     9:24.06       99503756 B   ---   --   ---xx   flac  0.4325  ratdog2013-08-17d02t06.flac
     9:40.37      102399068 B   ---   --   ---xx   flac  0.5427  ratdog2013-08-17d02t07.flac
     5:14.05       55401404 B   ---   --   ---xx   flac  0.5376  ratdog2013-08-17d02t08.flac
   105:02.61     1111816888 B                            0.4860  (14 files)













More information about the bittorrent mailing list