[bittorrent] Ratdog Peach Festival Montage Mountain Scranton, Pennsylvania 8/16/2013 (Schoeps CCM4V'S FOB)

Automated Mailer noreply-bt.e at etree.org
Sat Aug 17 06:43:55 UTC 2013


Band:           Ratdog
Torrent Name:   Ratdog Peach Festival Montage Mountain Scranton, Pennsylvania 8/16/2013 (Schoeps CCM4V'S FOB)
Uploaded by:    zmanatl
DB Link:        
Details:        http://bt.etree.org/details.php?id=566225

Contact the seeder at http://db.etree.org/zmanatl

If the link to this show does not work, it was probably removed for
being non-trade-friendly.

Description / text file:
-------------------------
Ratdog
Peach Festival
Montage Mountain
Scranton, Pennsylvania
8/16/2013

Source: Schoeps CCM4V'S(din)>Lunatec V2>Benchmark AD2K>
Sound Devices 722 (24/48)
FOB/DFC/KFC/ZFC/AARP Section 102, Row Z, Between Seats 15 & 16, 9' High
DSP: Sound Devices 722>Sound Forge 9.0>CD Wave>flac(16)
Recorded By: Z-Man
Seeded By: Z-Man

Disc I 

01 Tuning
02 Easy Answers >
03 Brown-Eyed Women
04 Loose Lucy

Disc II 

01 Ashes And Glass >
02 Althea >
03 Dark Star Jam >
04 Easy To Slip >
05 Dark Star >
06 *Dear Prudence >
07 China-Cat Sunflower >
08 *I Know You Rider

* With Grace Potter On Vocals

ratdog2013-08-16d01t01.flac:04fc8082c557d2310ca1c9a050a63022
ratdog2013-08-16d01t02.flac:d451433b1084ecbe63c55dd3f36dd85b
ratdog2013-08-16d01t03.flac:5b380c9b51c4fcd10a708b8dccfdcd53
ratdog2013-08-16d01t04.flac:815f82acf5d307c26d461711379af555
ratdog2013-08-16d02t01.flac:8fb6df20fce8666ab4c38a76d310f06c
ratdog2013-08-16d02t02.flac:5af3e453611745c224fb15bc02f570a6
ratdog2013-08-16d02t03.flac:13964889fe8c0b87a613b191d8ddbb62
ratdog2013-08-16d02t04.flac:b9bdccbd391f2c56abf2a65a5320102a
ratdog2013-08-16d02t05.flac:9fcf0c77cff23df6fe94dfc739cf2dc0
ratdog2013-08-16d02t06.flac:f41a2a68c4a9751fee5c74218155edbc
ratdog2013-08-16d02t07.flac:a9aa69ff51ccfcf1de0da669fb21cb97
ratdog2013-08-16d02t08.flac:94ea60c77e5d9a60c3d057ff888a5914

 length     expanded size    cdr  WAVE problems  fmt   ratio  filename
     0:29.00        5115644 B   ---   --   ---xx   flac  0.3934  ratdog2013-08-16d01t01.flac
    13:01.35      137850764 B   ---   --   ---xx   flac  0.4867  ratdog2013-08-16d01t02.flac
     8:04.16       85415276 B   ---   --   ---xx   flac  0.4989  ratdog2013-08-16d01t03.flac
     8:12.34       86868812 B   ---   --   ---xx   flac  0.5230  ratdog2013-08-16d01t04.flac
    11:28.03      121370300 B   ---   --   ---xx   flac  0.5079  ratdog2013-08-16d02t01.flac
     9:08.31       96740156 B   ---   --   ---xx   flac  0.5068  ratdog2013-08-16d02t02.flac
     3:04.59       32596412 B   ---   --   ---xx   flac  0.4236  ratdog2013-08-16d02t03.flac
     7:34.27       80149148 B   ---   --   ---xx   flac  0.5106  ratdog2013-08-16d02t04.flac
     6:10.68       65427980 B   ---   --   ---xx   flac  0.4649  ratdog2013-08-16d02t05.flac
     9:07.74       96664892 B   ---   --   ---xx   flac  0.5060  ratdog2013-08-16d02t06.flac
     5:55.48       62734940 B   ---   --   ---xx   flac  0.5257  ratdog2013-08-16d02t07.flac
     7:27.42       78949628 B   ---   --   ---xx   flac  0.5602  ratdog2013-08-16d02t08.flac
    89:44.62      949883952 B                            0.5044  (12 files)









 




















More information about the bittorrent mailing list