[bittorrent] The Alternators Brooklyn Bowl Brooklyn, New York 8/15/2013 (Schoeps CCM4V'S FOB)

Automated Mailer noreply-bt.e at etree.org
Fri Aug 16 12:38:19 UTC 2013


Band:           Radiators
Torrent Name:   The Alternators Brooklyn Bowl Brooklyn, New York 8/15/2013 (Schoeps CCM4V'S FOB)
Uploaded by:    zmanatl
DB Link:        
Details:        http://bt.etree.org/details.php?id=566214

Contact the seeder at http://db.etree.org/zmanatl

If the link to this show does not work, it was probably removed for
being non-trade-friendly.

Description / text file:
-------------------------
The Alternators
Brooklyn Bowl
Brooklyn, New York
8/15/2013

Source: Schoeps CCM4V'S(din)>Lunatec V2>Benchmark AD2K>
Sound Devices 722 (24/48)
FOB/DLFC/KFC/ZFC/AARP 14' From Stage, 7 1/2' High
DSP: Sound Devices 722>Sound Forge 9.0>CD Wave>flac(16)
Recorded By: Z-Man
Seeded By: Z-Man

Disc I 

01 Introduction
02 Confidential
03 Let The FRed Wind Flow
04 Sittin' On Top Of The World
05 Band Introductions
06 Norwegian Wood >
07 Sure Need Your Love
08 Go Down Anna
09 ?
10 River Run

Disc II 

01 Spanish Moon 
02 Barn Burner 
03 Morning Dew
04 Lucinda >
05 Marlboro Theme >
06 Lucinda >
07 Cissy Strut >
08 Sneakin' Sally Through The Alley Jam >
09 Cissy Strut
Encore:
10 Banter
11 Papaya

Dave Mallone - Guitar And Vocals
Camile Baudoin - Guitar And Vocals
Frank Bua - Drums
Dave Pomerlau - Bass And Vocals
Mark Rechler - Keyboards And Vocals

alternators2013-08-15d01t01.flac:a76c10ba549192da4722975b362c3375
alternators2013-08-15d01t02.flac:6a6d8c8ed2395bbb9de3da53bbe714a2
alternators2013-08-15d01t03.flac:913e3c8570a608645668be049267e496
alternators2013-08-15d01t04.flac:2a5ec74eed8999f7747194cc64f12b82
alternators2013-08-15d01t05.flac:9290ca893e6373c12055909e0d259aa7
alternators2013-08-15d01t06.flac:910a49d3ffcaecf1abfd55e5ef587dfd
alternators2013-08-15d01t07.flac:ce10ca23839ed1609cc051c3d5b70b09
alternators2013-08-15d01t08.flac:4c9dba3b1f4118d151b78c12c97b9c93
alternators2013-08-15d01t09.flac:1a2d080015eafceb29a948585595edfc
alternators2013-08-15d01t10.flac:1146d9931f7614d1696a30ccfdac1d09
alternators2013-08-15d02t01.flac:1d340b251b542f4f4b6e6f07be22492a
alternators2013-08-15d02t02.flac:ba902c337d1b9897321b6edbbfec51b9
alternators2013-08-15d02t03.flac:a893349e2a0cd330960c883e0a88416c
alternators2013-08-15d02t04.flac:dc3e16f79f052b668dc110b693df21df
alternators2013-08-15d02t05.flac:6457d7d48eb072d83fe34b40d8f45304
alternators2013-08-15d02t06.flac:593bfacea5f43d53f69f58be48435f73
alternators2013-08-15d02t07.flac:0c5150b9ca5d908dc61283cfab1769b7
alternators2013-08-15d02t08.flac:05779d67cca60434e3946d86c1ffdac6
alternators2013-08-15d02t09.flac:4cf2e10854c32f1334fa4a41cc42fbf5
alternators2013-08-15d02t10.flac:57890e91b05b24c34b1b6dccff076775
alternators2013-08-15d02t11.flac:e6db0578f6db1538604fb099e4cb67ef

 length     expanded size    cdr  WAVE problems  fmt   ratio  filename
     1:24.40       14911724 B   ---   --   ---xx   flac  0.3876  alternators2013-08-15d01t01.flac
     9:52.11      104454716 B   ---   --   ---xx   flac  0.5622  alternators2013-08-15d01t02.flac
     6:27.40       68360924 B   ---   --   ---xx   flac  0.5250  alternators2013-08-15d01t03.flac
     9:14.00       97725644 B   ---   --   ---xx   flac  0.5547  alternators2013-08-15d01t04.flac
     0:33.00        5821244 B   ---   --   ---xx   flac  0.4332  alternators2013-08-15d01t05.flac
     0:23.46        4165436 B   ---   --   ---xx   flac  0.3869  alternators2013-08-15d01t06.flac
     7:51.34       83164412 B   ---   --   ---xx   flac  0.5532  alternators2013-08-15d01t07.flac
    12:38.22      133762988 B   ---   --   ---xx   flac  0.5114  alternators2013-08-15d01t08.flac
     7:15.03       76741100 B   ---   --   ---xx   flac  0.5252  alternators2013-08-15d01t09.flac
    12:21.53      130837100 B   ---   --   ---xx   flac  0.5479  alternators2013-08-15d01t10.flac
    11:21.02      120133148 B   ---   --   ---xx   flac  0.5394  alternators2013-08-15d02t01.flac
     5:54.50       62563244 B   ---   --   ---xx   flac  0.5684  alternators2013-08-15d02t02.flac
    11:07.11      117684716 B   ---   --   ---xx   flac  0.5556  alternators2013-08-15d02t03.flac
     4:50.26       51217196 B   ---   --   ---xx   flac  0.5716  alternators2013-08-15d02t04.flac
     1:20.69       14274332 B   ---   --   ---xx   flac  0.5834  alternators2013-08-15d02t05.flac
     2:29.38       26373020 B   ---   --   ---xx   flac  0.5833  alternators2013-08-15d02t06.flac
     1:27.54       15473852 B   ---   --   ---xx   flac  0.5600  alternators2013-08-15d02t07.flac
     2:07.41       22499276 B   ---   --   ---xx   flac  0.5778  alternators2013-08-15d02t08.flac
     1:01.24       10816892 B   ---   --   ---xx   flac  0.5418  alternators2013-08-15d02t09.flac
     1:11.14       12557372 B   ---   --   ---xx   flac  0.4323  alternators2013-08-15d02t10.flac
     9:28.56      100326956 B   ---   --   ---xx   flac  0.5591  alternators2013-08-15d02t11.flac
   120:21.34     1273865292 B                            0.5439  (21 files)





 



More information about the bittorrent mailing list