[bittorrent] Ratdog 11-11-06

Automated Mailer noreply-bt.e at etree.org
Tue Aug 13 12:21:16 UTC 2013


Band:           Ratdog
Torrent Name:   Ratdog 11-11-06
Uploaded by:    jmaneval
DB Link:        http://db.etree.org/shn/81172
Details:        http://bt.etree.org/details.php?id=566174

Contact the seeder at http://db.etree.org/jmaneval

If the link to this show does not work, it was probably removed for
being non-trade-friendly.

Description / text file:
-------------------------
RATDOG 
NJPAC 
Newark, NJ 
11-11-2006 Saturday 

Source: Microtech Gefell M210's > Oade M248 > Sony SBM-1 > Sony TC-D8 Dat. 
Set up in Row P center orchestra (FOB), mics on stand aprx 7-feet high. 

Transfer: MAD > Tascam DA20 > Tascam CDRW-5000 > CDR > EAC > Soundforge > 
CD-Wave > TLH v.1.0.0.72 (for SBE-OK, FLAC compression & checksums) > FLAC. 
Taped and transferred thru CDR by Jon Pasternak. EAC thru FLAC by Andrew F. 
Soundforge was used to make fades, and to create the seamless disc breaks. 

Disc One (56:17) 

01 Jam 
02 The Golden Road 
03 Jack Straw 
04 Birdsong 
05 Little Red Rooster 
06 West LA Fade Away 

Disc Two (66:25) 

01 Maggie's Farm 
02 Eyes Of The World 
-- set break -- 
03 Mule Skinner Blues 
04 A Hard Rain's A-Gonna Fall 
05 Even So 
06 October Queen / The Deep End 

Disc Three (55:26) 

01 Terrapin 
02 Stuff (with guest Tom Pope on drums) 
03 Stella Blue 
04 At a Siding / Terrapin Flyer (with guest Tom Pope, at the end) 
05 One More Saturday Night 
-- encore -- 
06 Black Muddy River 


md5 

2f39356ae4b9901f2520c7105d29c5b8 *rd2006-11-11d1t01.flac 
ba3c04ba3ac3fba8a0766266ab573fa3 *rd2006-11-11d1t02.flac 
19fe74b02138979ff7af569559754fb5 *rd2006-11-11d1t03.flac 
eea2f25a2d400424eabf6e617712d602 *rd2006-11-11d1t04.flac 
65d0670243cb31a9dd6b5d8cded40c35 *rd2006-11-11d1t05.flac 
aa6dc4ba137be4953a53089d93b5adca *rd2006-11-11d1t06.flac 
59bfed8d8829131ad89ec8052ab3a5b8 *rd2006-11-11d2t01.flac 
f372c53fab3e09cd0dfe69418d2d8faa *rd2006-11-11d2t02.flac 
44766c5131e2842cfdfbd677fbe7b54f *rd2006-11-11d2t03.flac 
4d02a33a96243b2a9219dca0199f2b7e *rd2006-11-11d2t04.flac 
85621997a3f89a00fc8c4abfcf1facbb *rd2006-11-11d2t05.flac 
3ab4063c2c3fc82650cdac9db3460e6b *rd2006-11-11d2t06.flac 
f36902cf279f854958d307dbd875f394 *rd2006-11-11d3t01.flac 
0cafadc7fb0a3baf3c6879ac863d39b2 *rd2006-11-11d3t02.flac 
0e1317dedac5cf94aee7553001b7df91 *rd2006-11-11d3t03.flac 
3b5e909d4b050781022c0253440bdb1f *rd2006-11-11d3t04.flac 
307e4661b4b8c6533da53ea94d3696d3 *rd2006-11-11d3t05.flac 
c39cefd4bc79459082caa7064d7cbf09 *rd2006-11-11d3t06.flac 

ffp 

rd2006-11-11d1t01.flac:d79f7f0a039e4ab0f76a4e38e574811d 
rd2006-11-11d1t02.flac:a4178ff37c2148cddc40b309e3ca4064 
rd2006-11-11d1t03.flac:3a8736fdef64801d60f37e343f6df6ee 
rd2006-11-11d1t04.flac:e6c1ca757434ea3070a6bb2dd04bc791 
rd2006-11-11d1t05.flac:92bcf6d9f12d26cb1e436169369650a4 
rd2006-11-11d1t06.flac:b296a5da21ee24d85624b7707e557448 
rd2006-11-11d2t01.flac:b58a6105ab90b169870b61042d4ffe27 
rd2006-11-11d2t02.flac:9c50b5f333a490bd8991a03771f676b0 
rd2006-11-11d2t03.flac:6cfa21aa3a1f97122cde5149c1fad871 
rd2006-11-11d2t04.flac:70cd3538cd7e3da4e8e694ca7dabd58d 
rd2006-11-11d2t05.flac:e1b198c90ad79ea9c211281aad313996 
rd2006-11-11d2t06.flac:c396455d605c0a9e5448fc341a01310f 
rd2006-11-11d3t01.flac:95cdd12acd8b132c682170f8937bc9cf 
rd2006-11-11d3t02.flac:28b0e75036f687dea86e8639657cf90d 
rd2006-11-11d3t03.flac:951f180981746944bd14c8c511d32e52 
rd2006-11-11d3t04.flac:0559322627f93413c059573692384014 
rd2006-11-11d3t05.flac:1341913e12f6a90b905f9191cfc1864f 
rd2006-11-11d3t06.flac:5baa69f6cc916170162928075e2abe44 

shntool 

    length     expanded size   cdr  WAVE problems filename 
     3:09.09       33360812    ---   --   ---xx   rd2006-11-11d1t01.flac 
     6:58.15       73770524    ---   --   ---xx   rd2006-11-11d1t02.flac 
    12:30.19      132344732    ---   --   ---xx   rd2006-11-11d1t03.flac 
    11:30.46      121824236    ---   --   ---xx   rd2006-11-11d1t04.flac 
    11:36.65      122927324    ---   --   ---xx   rd2006-11-11d1t05.flac 
    10:32.20      111531884    ---   --   ---xx   rd2006-11-11d1t06.flac 
     9:27.04      100028252    ---   --   ---xx   rd2006-11-11d2t01.flac 
    18:13.18      192847580    ---   --   ---xx   rd2006-11-11d2t02.flac 
     7:57.40       84236924    ---   --   ---xx   rd2006-11-11d2t03.flac 
     8:10.10       86459564    ---   --   ---xx   rd2006-11-11d2t04.flac 
     9:45.36      103278716    ---   --   ---xx   rd2006-11-11d2t05.flac 
    12:52.33      136258460    ---   --   ---xx   rd2006-11-11d2t06.flac 
    13:34.25      143648444    ---   --   ---xx   rd2006-11-11d3t01.flac 
     9:58.40      105581324    ---   --   ---xx   rd2006-11-11d3t02.flac 
     9:49.03      103906700    ---   --   ---xx   rd2006-11-11d3t03.flac 
     8:09.52       86381948    ---   --   ---xx   rd2006-11-11d3t04.flac 
     6:13.01       65799596    ---   --   ---xx   rd2006-11-11d3t05.flac 
     7:42.16       81534476    ---   --   ---xx   rd2006-11-11d3t06.flac 
   178:10.02     1885721496 B                     (totals for 18 files, 0.6060 overall compression ratio) 

There were no sector boundary errors. 




More information about the bittorrent mailing list