[bittorrent] Matuto Club Passim Cambridge, Massachusetts 8/11/2013 (Schoeps CCM4V'S FOB)

Automated Mailer noreply-bt.e at etree.org
Tue Aug 13 02:13:34 UTC 2013


Band:           Other
Torrent Name:   Matuto Club Passim Cambridge, Massachusetts 8/11/2013 (Schoeps CCM4V'S FOB)
Uploaded by:    zmanatl
DB Link:        
Details:        http://bt.etree.org/details.php?id=566169

Contact the seeder at http://db.etree.org/zmanatl

If the link to this show does not work, it was probably removed for
being non-trade-friendly.

Description / text file:
-------------------------
Matuto
Club Passim
Cambridge, Massachusetts
8/11/2013

Source: Schoeps CCM4V'S(din)>Lunatec V2>Benchmark AD2K>
Sound Devices 722 (24/48)
FOB/DRFC/KFC/ZFC/AARP Stage Lip, 6 1/2' High
DSP: Sound Devices 722>Sound Forge 9.0>CD Wave>flac(16)
Recorded By: Z-Man
Seeded By: Z-Man

Disc I 

01 ?
02 ?
03 Band Introductions/Banter
04 Horse Eat Corn
05 ?
06 Sunshine
07 ? >
08 Drum Solo >
09 ? >
10 ?

Disc II

01 Banter
02 The Way I Love You
03 *Asabranca
04 ?
05 #?
06 Diamond
07 ?
08 Matuto Chant

* Rob Solo
# Clay And Richie, With Anthony Douglas On Kashaka (Kosika, Kesh Kesh)

Clay Ross - Guitar, Percussion, And Vocals
Rob Curto - Accordian And Vocals
Mazz Swift - Fiddle And Vocals
Richie Barshay - Drums
Edward Perez - Bass

matuto2013-08-11d01t01.flac:bcf253e738c4c769d6b8c97a2646afda
matuto2013-08-11d01t02.flac:a8ab851243ab2971952a6a4043773537
matuto2013-08-11d01t03.flac:960882bbe0d2249fa870b8bfb59ed7e3
matuto2013-08-11d01t04.flac:3d24e5103437f1ae8cd19b0fbc3df149
matuto2013-08-11d01t05.flac:adceaf75467602aa38988809e2608832
matuto2013-08-11d01t06.flac:5c2c0eb77560fb29d49518c1e58b61c8
matuto2013-08-11d01t07.flac:6528be208aaf75a4f537570d0b9f993b
matuto2013-08-11d01t08.flac:2100c9a9174ab292c685f55446854950
matuto2013-08-11d01t09.flac:83cf49d65dffd6d0ff4ee19bd0d4cb57
matuto2013-08-11d01t10.flac:8ac0456f6dea1915806c7b44d3b744fd
matuto2013-08-11d02t01.flac:e4aa7628dfbcfc91c1fe343d6d68cdad
matuto2013-08-11d02t02.flac:51734457be615ca25b08047949760bc0
matuto2013-08-11d02t03.flac:3a32d8f40ef51cb18c3383dc1a17d278
matuto2013-08-11d02t04.flac:279a496e2007dc8055f0b3aa4bf110ce
matuto2013-08-11d02t05.flac:3cb779a7463080e2da253f41523f6fe0
matuto2013-08-11d02t06.flac:406d1f1391fc3306f4a6639996f96f43
matuto2013-08-11d02t07.flac:3eb9b84c3953dea9a0acca86180b917b
matuto2013-08-11d02t08.flac:a563bba1fcdf10fa6340b8f30e20feff

 length     expanded size    cdr  WAVE problems  fmt   ratio  filename
     3:37.11       38304716 B   ---   --   ---xx   flac  0.4977  matuto2013-08-11d01t01.flac
     4:53.13       51715820 B   ---   --   ---xx   flac  0.5023  matuto2013-08-11d01t02.flac
     3:14.28       34287500 B   ---   --   ---xx   flac  0.3128  matuto2013-08-11d01t03.flac
     4:02.22       42740588 B   ---   --   ---xx   flac  0.3982  matuto2013-08-11d01t04.flac
     9:58.10      105510764 B   ---   --   ---xx   flac  0.4847  matuto2013-08-11d01t05.flac
     4:49.18       51021980 B   ---   --   ---xx   flac  0.4791  matuto2013-08-11d01t06.flac
     3:42.37       39247868 B   ---   --   ---xx   flac  0.5036  matuto2013-08-11d01t07.flac
     2:42.35       28659164 B   ---   --   ---xx   flac  0.4473  matuto2013-08-11d01t08.flac
     1:48.54       19178252 B   ---   --   ---xx   flac  0.5081  matuto2013-08-11d01t09.flac
     7:18.39       77354972 B   ---   --   ---xx   flac  0.4403  matuto2013-08-11d01t10.flac
     1:22.13       14495420 B   ---   --   ---xx   flac  0.3244  matuto2013-08-11d02t01.flac
     3:54.04       41287052 B   ---   --   ---xx   flac  0.4536  matuto2013-08-11d02t02.flac
     5:29.68       58195580 B   ---   --   ---xx   flac  0.3259  matuto2013-08-11d02t03.flac
     3:56.02       41635148 B   ---   --   ---xx   flac  0.5016  matuto2013-08-11d02t04.flac
     6:11.27       65507948 B   ---   --   ---xx   flac  0.4469  matuto2013-08-11d02t05.flac
     5:26.47       57616988 B   ---   --   ---xx   flac  0.4922  matuto2013-08-11d02t06.flac
     6:14.19       66018332 B   ---   --   ---xx   flac  0.4712  matuto2013-08-11d02t07.flac
     7:19.71       77606636 B   ---   --   ---xx   flac  0.4972  matuto2013-08-11d02t08.flac
    86:00.68      910384728 B                            0.4563  (18 files)





More information about the bittorrent mailing list