[bittorrent] Phil Lesh and Friends 2013-07-24 Penn's Peak Jim Thorpe, PA - 1st FOB

Automated Mailer noreply-bt.e at etree.org
Sun Aug 11 00:33:00 UTC 2013


Band:           Phil Lesh & Friends
Torrent Name:   Phil Lesh and Friends 2013-07-24 Penn's Peak Jim Thorpe, PA - 1st FOB
Uploaded by:    Albix
DB Link:        http://db.etree.org/shn/125366
Details:        http://bt.etree.org/details.php?id=566118

Contact the seeder at http://db.etree.org/Albix

If the link to this show does not work, it was probably removed for
being non-trade-friendly.

Description / text file:
-------------------------
Phil Lesh & Friends
7/24/2013 - Wednesday
Penn's Peak
Jim Thorpe, PA

Source: MAC; (FOB) Sennheiser e 835 > Sony D5 > Maxel XLII 90x2/Maxell XLII 100x1 

Mic info: FOB, DFC, 35 feet from the stage, mics hand held (set I) on stand (set II), 5 ft high, PAS

Transfer/Lineage: Master Audience Cassettes> Nakamichi Dragon> Lunatec V3(@24/88.2)> 
Lynx AES16e> WaveLab 7.2.1> .wav @24/88.1> Apogee UV22HR> .wav @16/44.1> xAct> flac16. 

Taper: Mark McCue
Transfer, editing and mastering: Alex Ford


Set I [77:28]

01. Tuning
02. Loose Lucy (w/ "Love Supreme" jam)
03. Loser
04. Mississippi Half-Step Uptown Toodeloo >
05. Jam >
06. Dire Wolf
07. Cosmic Charlie
08. Deal

Set II [105:48]

01. Tuning
02. Scarlet Begonias >
03. Cryptical Envelopment >
04. The Other One >
05. Eyes Of The World >
06. The Wheel > "There Is A Mountain" jam > The Wheel >
07. Space >
08. Help On The Way >
09. Slipknot! >
10. Franklin's Tower
Encore:
11. Donor Rap
12. Not Fade Away > NFA Chant

Notes:

- Yet another great fob analog recording from Mark McCue! 
- Two master cassette recordings were made (mics > D5 > D5). This source is from 1st deck out.
- Recording levels were changed at least four times to compensate for the soundman's abrupt changes.
- Set II tape flip crossfaded. 12 sec of Franklin's patched. Donor Rap and first 29 sec of Not Fade Away patched. 
- All patches from MK41's>V3>SD744t. Recorded by Keith Litzenberger.
- All editing and mastering with UAD-2 in 24/88.2. SBE Free, meta-tagging w/ xAct
- Much thanks to Andrew Kolodjeski (loan of mics, stand and Sony D5s), Mary Orr, Ted Krzyzanowski and 
  Alex Ford (mic stand blocking). 


Phil Lesh - bass/vocals
John Kadlecik - guitar/vocals
John Medeski - keyboards
John Scofield - guitar
Joe Russo - drums


Shnlen:

    length     expanded size    cdr  WAVE problems  fmt   ratio  filename
     1:27.27       15410348 B   ---   --   -----    wav  1.0000  plf2013-07-24-senn_e835-s1t01.wav
    16:46.51      177578396 B   ---   --   -----    wav  1.0000  plf2013-07-24-senn_e835-s1t02.wav
    12:35.71      133349036 B   ---   --   -----    wav  1.0000  plf2013-07-24-senn_e835-s1t03.wav
    11:09.31      118084556 B   ---   --   -----    wav  1.0000  plf2013-07-24-senn_e835-s1t04.wav
     5:10.37       54771068 B   ---   --   -----    wav  1.0000  plf2013-07-24-senn_e835-s1t05.wav
     6:26.52       68212748 B   ---   --   -----    wav  1.0000  plf2013-07-24-senn_e835-s1t06.wav
     9:24.61       99633116 B   ---   --   -----    wav  1.0000  plf2013-07-24-senn_e835-s1t07.wav
    10:27.42      110701628 B   ---   --   -----    wav  1.0000  plf2013-07-24-senn_e835-s1t08.wav
     0:53.01        9351596 B   ---   --   -----    wav  1.0000  plf2013-07-24-senn_e835-s2t01.wav
    11:58.69      126817532 B   ---   --   -----    wav  1.0000  plf2013-07-24-senn_e835-s2t02.wav
     6:29.73       68791340 B   ---   --   -----    wav  1.0000  plf2013-07-24-senn_e835-s2t03.wav
    11:34.67      122579228 B   ---   --   -----    wav  1.0000  plf2013-07-24-senn_e835-s2t04.wav
    20:20.07      215224508 B   ---   --   -----    wav  1.0000  plf2013-07-24-senn_e835-s2t05.wav
     9:53.61      104748716 B   ---   --   -----    wav  1.0000  plf2013-07-24-senn_e835-s2t06.wav
     5:31.39       58480172 B   ---   --   -----    wav  1.0000  plf2013-07-24-senn_e835-s2t07.wav
     6:46.53       71743100 B   ---   --   -----    wav  1.0000  plf2013-07-24-senn_e835-s2t08.wav
     8:30.01       89966396 B   ---   --   -----    wav  1.0000  plf2013-07-24-senn_e835-s2t09.wav
    13:05.43      138575180 B   ---   --   -----    wav  1.0000  plf2013-07-24-senn_e835-s2t10.wav
     2:08.64       22729772 B   ---   --   -----    wav  1.0000  plf2013-07-24-senn_e835-s2t11.wav
     8:34.71       90836636 B   ---   --   -----    wav  1.0000  plf2013-07-24-senn_e835-s2t12.wav
   179:17.21     1897585072 B                            1.0000  (20 files)




More information about the bittorrent mailing list