[bittorrent] Of A Revolution Citi Field Flushing, New York 8/2/2013

Automated Mailer noreply-bt.e at etree.org
Sat Aug 10 07:43:35 UTC 2013


Band:           O.A.R. (Of A Revolution)
Torrent Name:   Of A Revolution Citi Field Flushing, New York 8/2/2013 
Uploaded by:    zmanatl
DB Link:        
Details:        http://bt.etree.org/details.php?id=566093

Contact the seeder at http://db.etree.org/zmanatl

If the link to this show does not work, it was probably removed for
being non-trade-friendly.

Description / text file:
-------------------------
Of A Revolution
Citi Field
Flushing, New York
8/2/2013

Source: Tascam PCM Recorder>IPhone V (24/48)
Section 411, Row 5, Seat 1, 3' High
DSP: Tascam >Sound Forge 9.0>CD Wave>flac(16)
Recorded By: Z-Man
Seeded By: Z-Man

Disc I 

01 Dangerous Connection
02 This Town
03 52-50
04 ?
05 Delicate Few >
06 ?
07 About An Hour Ago
08 Whose Chariot?
09 Love And Memories
10 Heaven
11 Peace12 Crazy ame Of Poker

* Not The Greatest Recording. I waited a week To See If Someone Taped This
With A Decent Rig. Nothing Has Surfaced So I Am Uploading This So There Is 
A Source. Been A Minute Since I Have Recorded These Guys!

oar2013-08-02d01t01.flac:88261d7b87e5e306d57efa9be865d403
oar2013-08-02d01t02.flac:a7405ed8c5dd1a64253ca1455a1e465d
oar2013-08-02d01t03.flac:01f3f0542df4c0f73630b83ea0acaec8
oar2013-08-02d01t04.flac:70dd54130755f2dae5a5c9fe4bb0cb9d
oar2013-08-02d01t05.flac:6119eab3323e5122d257e09a8790423b
oar2013-08-02d01t06.flac:969fa3dc3e6a6582ce2cdbafc7e54df9
oar2013-08-02d01t07.flac:42459ab4ed89a03f6179822ca2d92e53
oar2013-08-02d01t08.flac:83de3e98e81d8af00fff2ebed4e70e02
oar2013-08-02d01t09.flac:508eae0fe208d6dc1e7d95101291466f
oar2013-08-02d01t10.flac:3736dd225d0d13b3f359dd81db796d59
oar2013-08-02d01t11.flac:676b8f4e29113c279a60ec1a504b4e64
oar2013-08-02d01t12.flac:dc2e1658d5e0fb455fad8d430bea3362

length     expanded size    cdr  WAVE problems  fmt   ratio  filename
     5:45.15       60893324 B   ---   --   ---xx   flac  0.2880  oar2013-08-02d01t01.flac
     4:22.45       46322684 B   ---   --   ---xx   flac  0.2993  oar2013-08-02d01t02.flac
     9:49.28      103965500 B   ---   --   ---xx   flac  0.2976  oar2013-08-02d01t03.flac
     5:05.32       53877308 B   ---   --   ---xx   flac  0.2957  oar2013-08-02d01t04.flac
     2:44.06       28943756 B   ---   --   ---xx   flac  0.2968  oar2013-08-02d01t05.flac
     5:53.22       62320988 B   ---   --   ---xx   flac  0.2906  oar2013-08-02d01t06.flac
     5:41.37       60239468 B   ---   --   ---xx   flac  0.2889  oar2013-08-02d01t07.flac
     7:26.03       78681500 B   ---   --   ---xx   flac  0.2877  oar2013-08-02d01t08.flac
     5:00.13       52950620 B   ---   --   ---xx   flac  0.2936  oar2013-08-02d01t09.flac
     4:43.09       49942412 B   ---   --   ---xx   flac  0.3017  oar2013-08-02d01t10.flac
     3:42.36       39245516 B   ---   --   ---xx   flac  0.2684  oar2013-08-02d01t11.flac
    11:42.03      123839900 B   ---   --   ---xx   flac  0.2933  oar2013-08-02d01t12.flac
    71:55.24      761222976 B                            0.2923  (12 files)




More information about the bittorrent mailing list