[bittorrent] High And Mighty Brass Band Brooklyn Bowl Brooklyn, New York 8/8/2013 (Schoeps CCM4V'S FOB)

Automated Mailer noreply-bt.e at etree.org
Sat Aug 10 06:23:54 UTC 2013


Band:           Other
Torrent Name:   High And Mighty Brass Band Brooklyn Bowl Brooklyn, New York 8/8/2013 (Schoeps CCM4V'S FOB)
Uploaded by:    zmanatl
DB Link:        
Details:        http://bt.etree.org/details.php?id=566092

Contact the seeder at http://db.etree.org/zmanatl

If the link to this show does not work, it was probably removed for
being non-trade-friendly.

Description / text file:
-------------------------
High And Mighty Brass Band
Brooklyn Bowl
Brooklyn, New York
8/8/2013

Source: Schoeps CCM4V'S(din)>Lunatec V2>Benchmark AD2K>
Sound Devices 722 (24/48)
FOB/DLFC/KFC/ZFC/AARP 14' From Stage, 7 1/2' High
DSP: Sound Devices 722>Sound Forge 9.0>CD Wave>flac(16)
Recorded By: Z-Man
Seeded By: Z-Man

Disc I 

01 *? >
02 ? >
03 ? >
04 ?
05 #
06 ?
07 ? >
08 ?
09 @Glory Hallelujah >
10 @I'm Gonna Let It Shine >
11 *?
Encore: 
12 *? >
13 *I'll Fly Away

* Band Came Out And Played As They Went Through The Crowd
# With Ationne Morales ? On Vocals
@ With Eli "Paperboy" Reed On Vocals

hmbb2013-08-08d01t01.flac:1afd626ded240f2e6385bf62aa180508
hmbb2013-08-08d01t02.flac:dde01ee2ebf6545c99033d2d8b5d269a
hmbb2013-08-08d01t03.flac:f62a439aaec0cd822b876e106a099bc2
hmbb2013-08-08d01t04.flac:74b9c505dc176964d41909d6a28447e2
hmbb2013-08-08d01t05.flac:59260dcc68de5b2fb456569c0d529419
hmbb2013-08-08d01t06.flac:aba529d4ea590a2b0851caaf0cd0af1c
hmbb2013-08-08d01t07.flac:36e9edf99d59cb815c5e1c55702959e1
hmbb2013-08-08d01t08.flac:3a6005e40ba2537b8a5dc8a449a0d294
hmbb2013-08-08d01t09.flac:9fcf64597344e7e5a684fac82ee19a63
hmbb2013-08-08d01t10.flac:a48edcc61b73337aaf9bfa694dc5bef5
hmbb2013-08-08d01t11.flac:162e08227e323e8a5914c8dd3f48298b
hmbb2013-08-08d01t12.flac:c63a630b708061edb2ee89395025de7c
hmbb2013-08-08d01t13.flac:b7930930abd9a39f289e1c348f0bb6e3

 length     expanded size    cdr  WAVE problems  fmt   ratio  filename
     4:36.65       48839324 B   ---   --   ---xx   flac  0.5104  hmbb2013-08-08d01t01.flac
     3:35.59       38064812 B   ---   --   ---xx   flac  0.5118  hmbb2013-08-08d01t02.flac
     4:17.59       45473612 B   ---   --   ---xx   flac  0.5653  hmbb2013-08-08d01t03.flac
     7:51.17       83124428 B   ---   --   ---xx   flac  0.5746  hmbb2013-08-08d01t04.flac
     8:24.39       88997372 B   ---   --   ---xx   flac  0.5078  hmbb2013-08-08d01t05.flac
     3:41.64       39134972 B   ---   --   ---xx   flac  0.5620  hmbb2013-08-08d01t06.flac
     6:58.08       73754060 B   ---   --   ---xx   flac  0.5355  hmbb2013-08-08d01t07.flac
     5:29.53       58160300 B   ---   --   ---xx   flac  0.5366  hmbb2013-08-08d01t08.flac
     2:49.40       29905724 B   ---   --   ---xx   flac  0.5852  hmbb2013-08-08d01t09.flac
     3:33.60       37714364 B   ---   --   ---xx   flac  0.5280  hmbb2013-08-08d01t10.flac
     3:33.28       37639100 B   ---   --   ---xx   flac  0.4294  hmbb2013-08-08d01t11.flac
     5:30.57       58346108 B   ---   --   ---xx   flac  0.4529  hmbb2013-08-08d01t12.flac
     5:47.43       61311980 B   ---   --   ---xx   flac  0.4476  hmbb2013-08-08d01t13.flac
    66:10.67      700466156 B                            0.5185  (13 files)










 



















More information about the bittorrent mailing list