[bittorrent] Galactic Brooklyn Bowl Brooklyn, New York 8/8/2013 (Schoeps CCM4V'S FOB)

Automated Mailer noreply-bt.e at etree.org
Sat Aug 10 05:10:35 UTC 2013


Band:           Galactic
Torrent Name:   Galactic Brooklyn Bowl Brooklyn, New York 8/8/2013 (Schoeps CCM4V'S FOB)
Uploaded by:    zmanatl
DB Link:        
Details:        http://bt.etree.org/details.php?id=566089

Contact the seeder at http://db.etree.org/zmanatl

If the link to this show does not work, it was probably removed for
being non-trade-friendly.

Description / text file:
-------------------------
Galactic
Brooklyn Bowl
Brooklyn, New York
8/8/2013

Source: Schoeps CCM4V'S(din)>Lunatec V2>Benchmark AD2K>
Sound Devices 722 (24/48)
FOB/DLFC/KFC/ZFC/AARP 14' From Stage, 7 1/2' High
DSP: Sound Devices 722>Sound Forge 9.0>CD Wave>flac(16)
Recorded By: Z-Man
Seeded By: Z-Man

Disc I 

01 Greeting
02 Bingo The Dog
03 *Hey Na Na
04 *Ain't No Love
05 *Nobody Knows
06 Who Took The Happiness
07 ?
08 From The Corner To The Block >
09 I Got Your Money
10 Jumpin' Jack Flash
11 Better Off Dead

Disc II 

01 ?
02 ? >
03 Drum Solo >
04 ?
05 It's All Over Now
06 #Buck It Like A Horse
Encore:
07 Thanks
08 #Blackbird Special
09 *When The Levee Breaks

* With David Shaw
# With The High And Mighty Brass Band

galactic2013-08-08d01tI01.flac:ea2a717964dc4375820b4079becc1485
galactic2013-08-08d01tI02.flac:9c4e25f8073d4463fcd20e5bc5027c03
galactic2013-08-08d01tI03.flac:96565ef98831bb99bdc9b47785258132
galactic2013-08-08d01tI04.flac:a45f3e88cb3bf57a708a82da1ddeaa25
galactic2013-08-08d01tI05.flac:826ac6960da285d87da224e9674263cc
galactic2013-08-08d01tI06.flac:37cfb582ff25c3bb5db97e472621a256
galactic2013-08-08d01tI07.flac:d5b4d7f0e9b341784d90d92df63de7d3
galactic2013-08-08d01tI08.flac:35b60f216586ea9e0b33cddced3afeb0
galactic2013-08-08d01tI09.flac:ad0f40a1964e68bf373209a88107fea1
galactic2013-08-08d01tI10.flac:7dc3b41f556d611c759cdbbebc7f6229
galactic2013-08-08d01tI11.flac:8c1ed93939380b2bfaa283de667f8947
galactic2013-08-08d02t01.flac:1037b7ff1cac74c103adeebc6bd827cc
galactic2013-08-08d02t02.flac:685f655a49214f4c864f0941a736fe5c
galactic2013-08-08d02t03.flac:9ec28dba9505195672c3b08555a00940
galactic2013-08-08d02t04.flac:5339116b604bfe9a8e45127f1a75416f
galactic2013-08-08d02t05.flac:4e86acfc40fdcbe9011bcfcfe22cb0b0
galactic2013-08-08d02t06.flac:7472f2e857784a691f00f646b38473af
galactic2013-08-08d02t07.flac:11b762012a24ba69e1127daa11af8710
galactic2013-08-08d02t08.flac:611bc82d6d65023e01be3744fd90da6c
galactic2013-08-08d02t09.flac:0c491a28dd165a5a3b6e3af98ade1885

 length     expanded size    cdr  WAVE problems  fmt   ratio  filename
     0:37.70        6691484 B   ---   --   ---xx   flac  0.3710  galactic2013-08-08d01tI01.flac
     5:06.24       54034892 B   ---   --   ---xx   flac  0.5486  galactic2013-08-08d01tI02.flac
     4:20.03       45871100 B   ---   --   ---xx   flac  0.5439  galactic2013-08-08d01tI03.flac
     5:51.15       61951724 B   ---   --   ---xx   flac  0.5139  galactic2013-08-08d01tI04.flac
     5:44.21       60731036 B   ---   --   ---xx   flac  0.5307  galactic2013-08-08d01tI05.flac
     8:11.22       86664188 B   ---   --   ---xx   flac  0.5327  galactic2013-08-08d01tI06.flac
     6:23.55       67690604 B   ---   --   ---xx   flac  0.5343  galactic2013-08-08d01tI07.flac
     3:33.50       37690844 B   ---   --   ---xx   flac  0.5085  galactic2013-08-08d01tI08.flac
     3:45.46       39798236 B   ---   --   ---xx   flac  0.4863  galactic2013-08-08d01tI09.flac
     6:07.21       64788236 B   ---   --   ---xx   flac  0.5429  galactic2013-08-08d01tI10.flac
     5:12.24       55093292 B   ---   --   ---xx   flac  0.4751  galactic2013-08-08d01tI11.flac
     7:34.22       80137388 B   ---   --   ---xx   flac  0.5226  galactic2013-08-08d02t01.flac
     2:46.26       29343596 B   ---   --   ---xx   flac  0.4898  galactic2013-08-08d02t02.flac
     6:39.34       70463612 B   ---   --   ---xx   flac  0.4822  galactic2013-08-08d02t03.flac
     0:56.66       10033676 B   ---   --   ---xx   flac  0.5730  galactic2013-08-08d02t04.flac
     4:49.26       51040796 B   ---   --   ---xx   flac  0.5310  galactic2013-08-08d02t05.flac
    11:40.17      123520028 B   ---   --   ---xx   flac  0.5618  galactic2013-08-08d02t06.flac
     1:50.23       19458140 B   ---   --   ---xx   flac  0.3780  galactic2013-08-08d02t07.flac
     9:09.39       96935372 B   ---   --   ---xx   flac  0.5652  galactic2013-08-08d02t08.flac
     8:59.47       95190188 B   ---   --   ---xx   flac  0.5395  galactic2013-08-08d02t09.flac
   109:19.51     1157128432 B                            0.5266  (20 files)


 















More information about the bittorrent mailing list