[bittorrent] phish - hollywood bowl - august 5, 2013 - akgc422>v2>ad2k+ (flac16)

Automated Mailer noreply-bt.e at etree.org
Fri Aug 9 17:35:32 UTC 2013


Band:           Phish
Torrent Name:   phish - hollywood bowl - august 5, 2013 - akgc422>v2>ad2k+ (flac16)
Uploaded by:    macdaddys.info
DB Link:        
Details:        http://bt.etree.org/details.php?id=566081

Contact the seeder at http://db.etree.org/macdaddys.info

If the link to this show does not work, it was probably removed for
being non-trade-friendly.

Description / text file:
-------------------------
Phish
Hollywood Bowl (2301 North Highland Avenue, Los Angeles, CA 90068)
Monday, August 5, 2013



AKG c422 > s42 > Grace Design Lunatec V2 > Sonic AD2K+ > Roland R-44 (S/PDIF/digital input)



Location: Box 931 / OTS, Right of Center, ~8' high, Calumet stand
Mic Config: X/Y (hypercardioid)
Record Format: 24-bit, 96 kHz
Transfer: SDHC card > USB 2.0 card reader > MacBook Air
Edits and Tracking: Waves C6, quadratic (linear) fades (Wave Editor 1.5.7)
Resample: Ultra-steep, Linear Phase (Izotope ReSampler/Wave Editor 1.5.7)
Dither: Ultra Shape, High Amount (MBIT+/Wave Editor 1.5.7)
Final Format: 16-bit, 44.1 kHz
Encode, Verify, Tagging, ReplayGain: xACT 2.23



01. (Set One)
02. AC/DC Bag
03. The Moma Dance
04. Sparkle
05. Stealing Time From The Faulty Plan
06. Lawn Boy
07. Wolfman’s Brother
08. Roses Are Free >
09. Scent Of A Mule
10. Ocelot
11. Cavern
12. While My Guitar Gently Weeps
13. (Set Two)
14. Chalk Dust Torture
15. Golden Age >
16. Birds Of A Feather
17. Sand >
18. Down With Disease >
19. My Friend, My Friend >
20. Harry Hood >
21. Character Zero
22. Loving Cup (encore)



    length     expanded size    cdr  WAVE problems  fmt   ratio  filename
     0:18.64        3325772 B   ---   --   -----    wav  1.0000  ph2013-08-05c422flac16t01.wav
     6:32.26       69209996 B   ---   --   -----    wav  1.0000  ph2013-08-05c422flac16t02.wav
     7:01.24       74320892 B   ---   --   -----    wav  1.0000  ph2013-08-05c422flac16t03.wav
     4:01.15       42547724 B   ---   --   -----    wav  1.0000  ph2013-08-05c422flac16t04.wav
     6:21.25       67267244 B   ---   --   -----    wav  1.0000  ph2013-08-05c422flac16t05.wav
     3:10.15       33551324 B   ---   --   -----    wav  1.0000  ph2013-08-05c422flac16t06.wav
     8:38.12       91403468 B   ---   --   -----    wav  1.0000  ph2013-08-05c422flac16t07.wav
     5:10.52       54806348 B   ---   --   -----    wav  1.0000  ph2013-08-05c422flac16t08.wav
     9:36.45      101712284 B   ---   --   -----    wav  1.0000  ph2013-08-05c422flac16t09.wav
     9:56.62      105280268 B   ---   --   -----    wav  1.0000  ph2013-08-05c422flac16t10.wav
     4:43.36       50005916 B   ---   --   -----    wav  1.0000  ph2013-08-05c422flac16t11.wav
    12:15.45      129759884 B   ---   --   -----    wav  1.0000  ph2013-08-05c422flac16t12.wav
     0:20.48        3640940 B   ---   --   -----    wav  1.0000  ph2013-08-05c422flac16t13.wav
     5:41.11       60178316 B   ---   --   -----    wav  1.0000  ph2013-08-05c422flac16t14.wav
     8:46.68       92946380 B   ---   --   -----    wav  1.0000  ph2013-08-05c422flac16t15.wav
     7:16.51       77030396 B   ---   --   -----    wav  1.0000  ph2013-08-05c422flac16t16.wav
     9:18.03       98438300 B   ---   --   -----    wav  1.0000  ph2013-08-05c422flac16t17.wav
     9:49.27      103963148 B   ---   --   -----    wav  1.0000  ph2013-08-05c422flac16t18.wav
     5:42.15       60364124 B   ---   --   -----    wav  1.0000  ph2013-08-05c422flac16t19.wav
    22:32.45      238598684 B   ---   --   -----    wav  1.0000  ph2013-08-05c422flac16t20.wav
     9:25.21       99715436 B   ---   --   -----    wav  1.0000  ph2013-08-05c422flac16t21.wav
     7:24.20       78368684 B   ---   --   -----    wav  1.0000  ph2013-08-05c422flac16t22.wav
   164:03.55     1736435528 B                            1.0000  (22 files)



###  FREE  ###         
The musicians allowed this recording for FREE.
PLEASE...
- Only share this recording with others for FREE.
- Do NOT sell or trade this recording for profit of any kind.

###  SUPPORT MUSICIANS  ###
Help ensure live recordings remain easily accessible and FREE by supporting the musicians:
- attend their live shows
- purchase their dry goods
- buy their studio releases

For more information on the musicians, their tours, and
studio recordings visit  http://www.phish.com/



++ recorded, transferred and uploaded by macdaddy (August 9, 2013)



More information about the bittorrent mailing list