No subject


Wed May 4 17:01:50 MDT 2011


SteveSw - Nov, 2008
------------------------------------------------------------------------
Recording Info:
SBD -> Cm (Sony D5) -> Dat

Transfer Info:
Dat (Sony R500) > Sound Devices USB Pre > Sony Vaio C1VP > Samplitude 6.0 > Cool Edit Pro v2.0 > SHN (2 Discs SHN / 3 Discs Audio)

Patch SRC: FOB Schoeps CMC3/MK4 (ORTF)>Oade Preamp>DAT>Behringer Ultramatch SRC2000>SEK'D Prodif Plus>Samplitude v7.02 Professional>SHN

Transfered and Remastered By Charlie Miller
charliemiller87 at earthlink.net
12/18/02

Set 1:
d1t01 - Hell In A Bucket
d1t02 - Cold Rain & Snow
d1t03 - Minglewood Blues
d1t04 - Row Jimmy
d1t05 - Mama Tried ->
d1t06 - Maggie's Farm
d1t07 - Loose Lucy
d1t08 - Picasso Moon
d1t09 - Reubin & Cherise

Set 2:
d2t01 - Scarlet Begonias ->
d2t02 - Fire On The Mountain
d2t03 - Estimated Prophet ->
d2t04 - Uncle John's Band ->
d2t05 - Drums ->
d3t01 - Space ->
d3t02 - All Along The Watchtower ->
d3t03 - Stella Blue ->
d3t04 - Sugar Magnolia
d3t05 - (Encore) Box Of Rain

Notes:
- Encore patched from AUD>Dat>CD source (Sorry, no mic info)
- Level changes during Hell In A Bucket


shntool output:

length expanded size cdr WAVE problems filename
8:30.53 90088700 --- -- ---xx gd91-03-27d1t01.flac
7:41.31 81393356 --- -- ---xx gd91-03-27d1t02.flac
10:53.30 115259804 --- -- ---xx gd91-03-27d1t03.flac
12:35.28 133247900 --- -- ---xx gd91-03-27d1t04.flac
2:29.36 26368316 --- -- ---xx gd91-03-27d1t05.flac
6:36.37 69941468 --- -- ---xx gd91-03-27d1t06.flac
10:14.20 108356684 --- -- ---xx gd91-03-27d1t07.flac
7:01.01 74266796 --- -- ---xx gd91-03-27d1t08.flac
7:34.23 80139740 --- -- ---xx gd91-03-27d1t09.flac
10:57.48 116007740 --- -- ---xx gd91-03-27d2t01.flac
15:43.02 166349948 --- -- ---xx gd91-03-27d2t02.flac
12:49.48 135764540 --- -- ---xx gd91-03-27d2t03.flac
9:58.09 105508412 --- -- ---xx gd91-03-27d2t04.flac
12:21.42 130811228 --- -- ---xx gd91-03-27d2t05.flac
9:45.68 103353980 --- -- ---xx gd91-03-27d3t01.flac
7:23.65 78298124 --- -- ---xx gd91-03-27d3t02.flac
9:21.15 98995724 --- -- ---xx gd91-03-27d3t03.flac
9:50.67 104233628 --- -- ---xx gd91-03-27d3t04.flac
5:05.09 53823212 --- -- ---xx gd91-03-27d3t05.flac
176:53.32 1872209300 B (totals for 19 files, 0.6124 overall compression ratio)




More information about the bittorrent mailing list