No subject


Wed May 4 17:01:50 MDT 2011


Recording Info:
SBD -> Cassette Master -> Dat

Transfer Info:
Dat (Sony R500) -> SEK'D Prodif Plus -> Samplitude Professional v7.02 -> FLAC
(2 Discs Audio / 2 Disc FLAC)

Transferred and Edited By Charlie Miller
charliemiller87 at earthlink.net
August 26, 2005

    length     expanded size   cdr  WAVE problems filename
     1:00.21       10633436    ---   --   -----   jg1977-07-23d1t01.wav
    15:09.74      160521692    ---   --   -----   jg1977-07-23d1t02.wav
     3:08.53       33287900    ---   --   -----   jg1977-07-23d1t03.wav
    15:24.58      163130060    ---   --   -----   jg1977-07-23d1t04.wav
     9:20.63       98932220    ---   --   -----   jg1977-07-23d1t05.wav
    11:17.02      119427548    ---   --   -----   jg1977-07-23d1t06.wav
     9:04.24       96018092    ---   --   -----   jg1977-07-23d1t07.wav
     1:08.42       12094028    ---   --   -----   jg1977-07-23d2t01.wav
     7:38.07       80807708    ---   --   -----   jg1977-07-23d2t02.wav
    11:09.28      118077500    ---   --   -----   jg1977-07-23d2t03.wav
     2:28.12       26135468    ---   --   -----   jg1977-07-23d2t04.wav
    11:54.37      126036668    ---   --   -----   jg1977-07-23d2t05.wav
     7:01.06       74278556    ---   --   -----   jg1977-07-23d2t06.wav
     2:52.28       30406700    ---   --   -----   jg1977-07-23d2t07.wav
    11:46.51      124658396    ---   --   -----   jg1977-07-23d2t08.wav
    11:09.07      118028108    ---   --   -----   jg1977-07-23d2t09.wav
   131:33.63     1392474080 B                     (totals for 16 files, 1.0000 overall compression ratio)




More information about the bittorrent mailing list