[bittorrent] gd1982-04-12.nak300.morrone.113824.flac2448

Automated Mailer noreply-bt.e at etree.org
Mon May 30 13:32:21 MDT 2011


Band:           Grateful Dead
Torrent Name:   gd1982-04-12.nak300.morrone.113824.flac2448
Uploaded by:    nfagdtrfb
DB Link:        http://db.etree.org/shn/113824
Details:        http://bt.etree.org/details.php?id=545316

Contact the seeder at http://db.etree.org/nfagdtrfb

If the link to this show does not work, it was probably removed for
being non-trade-friendly.

Description / text file:
-------------------------
GRATEFUL DEAD
Nassau Coliseum
Uniondale NY
04-12-1982

24bit/48kHz file-set

s1t01 Iko Iko
s1t02 Minglewood Blues
s1t03 Peggy-O
s1t04 Mama Tried >
s1t05 Mexicali Blues
s1t06 Birdsong
s1t07 C.C. Rider
s1t08 Tennessee Jed
s1t09 Looks Like Rain
s1t10 Deal

s2t01 Women Are Smarter >
s2t02 Sugaree
s2t03 Estimated Prophet >
s2t04 Uncle John's Band >
s2t05 Drum//s >
s2t06 Space >
s2t07 The Other One >
s2t08 Stella Blue >
s2t09 Sugar Magnolia
s2t10 Encore: Satisfaction

AUD: 2x Nakamichi CM300's > Sony TC-D5M > TDK MA-90's. Set up 
behind the stage, recorded from the rear-facing P.A. system. 
Taped by Joe Morrone.

Transfer: MAC > Nakamichi CR5A > Edirol FA-66 > Wavelab 2448 > 
CD-Wave > TLH > FLAC 2448 Tagged. Transfer by Andrew F. 05/2011

Notes: Not clear what caps were used on the CM300's, was likely 
the CP1's. There's a slight buzzing heard in the P.A. at times 
during the second set. No patch available for tape flip during 
Drums, small cross-fade added at 7:15. This recording has aprx 
three minutes more Drums/Space than ID-9508.

    length     expanded size    cdr  WAVE problems  fmt   ratio  filename
     6:48.960     117780524 B   cxx   --   ---xx   flac  0.7165  gd1982-04-12s1t01.flac
     8:46.213     151549484 B   cxx   --   ---xx   flac  0.7229  gd1982-04-12s1t02.flac
     8:02.520     138965804 B   cxx   --   ---xx   flac  0.7036  gd1982-04-12s1t03.flac
     2:42.440      46782764 B   cxx   --   ---xx   flac  0.7270  gd1982-04-12s1t04.flac
     5:22.160      92782124 B   cxx   --   ---xx   flac  0.7259  gd1982-04-12s1t05.flac
     9:06.707     157451564 B   cxx   --   ---xx   flac  0.7165  gd1982-04-12s1t06.flac
     7:59.773     138174764 B   cxx   --   ---xx   flac  0.7131  gd1982-04-12s1t07.flac
     8:58.307     155032364 B   cxx   --   ---xx   flac  0.7206  gd1982-04-12s1t08.flac
     8:13.213     142045484 B   cxx   --   ---xx   flac  0.7054  gd1982-04-12s1t09.flac
     7:37.516     131764640 B   cxx   --   ---xx   flac  0.7268  gd1982-04-12s1t10.flac
     6:32.680     113091884 B   cxx   --   ---xx   flac  0.7270  gd1982-04-12s2t01.flac
    15:08.800     261734444 B   cxx   --   ---xx   flac  0.7189  gd1982-04-12s2t02.flac
    11:44.293     202836524 B   cxx   --   ---xx   flac  0.7211  gd1982-04-12s2t03.flac
     6:30.187     112373804 B   cxx   --   ---xx   flac  0.7322  gd1982-04-12s2t04.flac
     9:29.827     164110124 B   cxx   --   ---xx   flac  0.6984  gd1982-04-12s2t05.flac
     6:12.667     107328044 B   cxx   --   ---xx   flac  0.6821  gd1982-04-12s2t06.flac
     8:05.187     139733804 B   cxx   --   ---xx   flac  0.7117  gd1982-04-12s2t07.flac
    11:16.427     194810924 B   cxx   --   ---xx   flac  0.6993  gd1982-04-12s2t08.flac
    10:24.693     179911724 B   cxx   --   ---xx   flac  0.7280  gd1982-04-12s2t09.flac
     7:15.187     125333828 B   cxx   --   ---xx   flac  0.7279  gd1982-04-12s2t10.flac
   166:17.756    2873594620 B                            0.7157  (20 files)

No errors occured.




More information about the bittorrent mailing list