[bittorrent] Smokey's Farmland Band Smith's Olde Bar Atlanta, Georgia 5/25/2011 (Schoeps CCM4V'S FOB)

Automated Mailer noreply-bt.e at etree.org
Mon May 30 08:23:19 MDT 2011


Band:           Other
Torrent Name:   Smokey's Farmland Band Smith's Olde Bar Atlanta, Georgia 5/25/2011 (Schoeps CCM4V'S FOB)
Uploaded by:    zmanatl
DB Link:        
Details:        http://bt.etree.org/details.php?id=545306

Contact the seeder at http://db.etree.org/zmanatl

If the link to this show does not work, it was probably removed for
being non-trade-friendly.

Description / text file:
-------------------------
Smokey's Farmland Band
Atlanta Room 
Smith's Olde Bar
Atlanta, Georgia
5/25/2011

Source: Schoeps CCM4V'S(din)>Lunatec V2>Benchmark AD2K>
Sound Devices 722 (24/48)
FOB/DFC/KFC/ZFC/AARP 10' From Stage, 7' High
DSP: Sound Devices 722>Sound Forge 9.0>CD Wave>flac(16)
Recorded By: Z-Man
Seeded By: Z-Man

Disc I

01 Instrumental >
02 My Dreams
03 How Mountain Girls Can Love
04 Katie Mae
05 ?
06 ?
07 Instrumental ?
08 Green Gold Rush
09 ?
10 ?
11 ? 

Disc II

01 Work On Tall Buildings
02 Foggy Mountain Special
03 Hot Tamale Baby
04 Calm Before The Storm
05 Roust About
06 *Mercy (With Get Back Teases)
07 Banter
08 Midnight Moonlight
09 Band Introductions
10 891168

* With Get Back Teases

Ian Newberry - Guitar And Vocals
Justin Roberts - Bass And Vocals
Trey Gibbs - Mandolin And Vocals
Rurik Nunan - Fiddle And Vocals
Kyle Tuttle - Banjo
Jerry Womack - Dobro

Flac Fingerprint 

smokeys2011-05-25d01t01.flac:5c345c3d4583365d43879e89e1012081
smokeys2011-05-25d01t02.flac:0c88c22537f99f24556d5656a7603487
smokeys2011-05-25d01t03.flac:635eb2151e8758050adc78e3b55a900c
smokeys2011-05-25d01t04.flac:f6dc5822d39ade5b92599f571059495d
smokeys2011-05-25d01t05.flac:ca4dbd9a0709d575074830dfe77e881a
smokeys2011-05-25d01t06.flac:d8be2e1bfc75e92a4c18fe91c18286ef
smokeys2011-05-25d01t07.flac:d24c15ad5bc3a29e196486bd90f1dfd7
smokeys2011-05-25d01t08.flac:54d0ebb009097fea4d6589a6ffa23af7
smokeys2011-05-25d01t09.flac:3a6405d8c68cab59b772a46537f9c843
smokeys2011-05-25d01t10.flac:90d9d5072c287354cf6f73e36283e408
smokeys2011-05-25d01t11.flac:8e141424b441e36026f66db2e4035405
smokeys2011-05-25d02t01.flac:188203a5190c47726202684515bf4f30
smokeys2011-05-25d02t02.flac:6ec21dc60da52e326cfcddb9fcbfc33a
smokeys2011-05-25d02t03.flac:c213c89f0a937001b15ea93faa4e6d67
smokeys2011-05-25d02t04.flac:b4412ed8d63f88d8d3aedf82bfb4fee9
smokeys2011-05-25d02t05.flac:3be1f904fb119fb9ba290a0da1dad5a5
smokeys2011-05-25d02t06.flac:97974b12b5e04fe92465eb083bc3731d
smokeys2011-05-25d02t07.flac:d26b3eb0d48726408fefb4267020edcf
smokeys2011-05-25d02t08.flac:b02d07ca5f7d3d48ae7a1b7bdea652a0
smokeys2011-05-25d02t09.flac:90bb422ca3172f2f50a3990518163ea4
smokeys2011-05-25d02t10.flac:18384b2199ac1765a41f5a6dd65a90bd

Shntool 

    length     expanded size    cdr  WAVE problems  fmt   ratio  filename
     2:52.62       30486668 B   ---   --   ---xx   flac  0.5357  smokeys2011-05-25d01t01.flac
     3:45.43       39791180 B   ---   --   ---xx   flac  0.5069  smokeys2011-05-25d01t02.flac
     3:12.24       33925292 B   ---   --   ---xx   flac  0.5178  smokeys2011-05-25d01t03.flac
     5:55.30       62692604 B   ---   --   ---xx   flac  0.4839  smokeys2011-05-25d01t04.flac
     3:11.61       33835916 B   ---   --   ---xx   flac  0.5022  smokeys2011-05-25d01t05.flac
     3:42.25       39219644 B   ---   --   ---xx   flac  0.4854  smokeys2011-05-25d01t06.flac
     5:40.57       60110108 B   ---   --   ---xx   flac  0.4897  smokeys2011-05-25d01t07.flac
     9:30.60      100689164 B   ---   --   ---xx   flac  0.4525  smokeys2011-05-25d01t08.flac
     3:37.02       38283548 B   ---   --   ---xx   flac  0.4993  smokeys2011-05-25d01t09.flac
     4:41.26       49629596 B   ---   --   ---xx   flac  0.4474  smokeys2011-05-25d01t10.flac
     5:00.13       52950620 B   ---   --   ---xx   flac  0.5233  smokeys2011-05-25d01t11.flac
     5:35.29       59162252 B   ---   --   ---xx   flac  0.4007  smokeys2011-05-25d02t01.flac
     4:45.13       50304620 B   ---   --   ---xx   flac  0.4963  smokeys2011-05-25d02t02.flac
     5:03.36       53533916 B   ---   --   ---xx   flac  0.4905  smokeys2011-05-25d02t03.flac
     5:57.72       63144188 B   ---   --   ---xx   flac  0.4271  smokeys2011-05-25d02t04.flac
     3:53.55       41230604 B   ---   --   ---xx   flac  0.5293  smokeys2011-05-25d02t05.flac
     8:14.62       87287468 B   ---   --   ---xx   flac  0.5110  smokeys2011-05-25d02t06.flac
     1:26.65       15323324 B   ---   --   ---xx   flac  0.3554  smokeys2011-05-25d02t07.flac
     7:33.72       80078588 B   ---   --   ---xx   flac  0.4924  smokeys2011-05-25d02t08.flac
     1:08.71       12162236 B   ---   --   ---xx   flac  0.4085  smokeys2011-05-25d02t09.flac
     4:36.69       48848732 B   ---   --   ---xx   flac  0.5115  smokeys2011-05-25d02t10.flac
    99:27.47     1052690268 B                            0.4822  (21 files)





More information about the bittorrent mailing list