[bittorrent] gd79-07-01.105210.fob-nak700.menke.motb-0112.flac16

Automated Mailer noreply-bt.e at etree.org
Mon May 30 07:14:06 MDT 2011


Band:           Grateful Dead
Torrent Name:   gd79-07-01.105210.fob-nak700.menke.motb-0112.flac16
Uploaded by:    germain
DB Link:        http://db.etree.org/shn/105210
Details:        http://bt.etree.org/details.php?id=545304

Contact the seeder at http://db.etree.org/germain

If the link to this show does not work, it was probably removed for
being non-trade-friendly.

Description / text file:
-------------------------
MOTB Release: 0112 16/44.1
Release Date: 2009-12-30
Band: Grateful Dead
Date: 1979-07-01 (Sunday)
Venue: Seattle Center Coliseum
Location: Seattle, WA
Analog Audience Source: FOB Master Cassettes (MAC)
Medium Stock Brands: MAC = 2 x Maxell UDXL-II
Analog Lineage: 2 x Nak CM 700's >> Sony TC-D5 >> MAC
Analog Sound Preservation: MAC >> Nakamichi CR7a => Korg MR-1000 >> DSF [1-bit 5.6448 MHz Stereo] >> Korg MR-1000 => Korg AudioGate >> WAV [24/96]
Taped By: Bob Menke
Transfer By: Bob Menke
Mastering By: Derek McCabe


CD ONE:

Set 1:
d1t01: tuning >  *
d1t02: Mississippi Half-Step > *
d1t03: Franklin's Tower 
d1t04: Mama Tried >
d1t05: Mexicali Blues 
d1t06: Peggy-O 
d1t07: Minglewood Blues 
d1t08: Stagger Lee 
d1t09: El Paso 
d1t10: Brown Eyed Women 
d1t11: Passenger 

CD TWO:

Set 2:
d2t01: crowd >
d2t02: Don't Ease Me In 
d2t03: Samson & Delilah 
d2t04: Sugaree 
d2t05: Terrapin Station >
d2t06: Playing In The Band >
d2t07: Drums >

CD THREE:

Set 2 (con'td);
d3t01: Space >
d3t02: Stella Blue >
d3t03: Truckin' >
d3t04: Around & Around 
~encore~
d3t0: Shakedown St.

Notes:
The first track of the Menke source is complete, but extremely low in volume. Therefore we used the "Tuning" and the first 70 seconds of "Mississippi" from "gd1979-07-01.sonyecm.severson.minches.90696.sbeok.flac16" as a patch. There is a 20 second crossfade from the Severson source to the Menke source in d1t02. The Menke source kicks in at the 1:10" mark in d1t02.  There is also a very tiny pause that was removed at the end "Mississippi", no patch was applied.


shntool 3.0.4
Copyright (C) 2000-2007 Jason Jordan <shnutils at freeshell.org>

    length     expanded size    cdr  WAVE problems  fmt   ratio  filename
     3:46.21       39915836 B   ---   --   ---xx   flac  0.4537  gd1979-07-01.fob.menke.d1t01.flac
     8:13.52       87087548 B   ---   --   ---xx   flac  0.5627  gd1979-07-01.fob.menke.d1t02.flac
    12:36.39      133450172 B   ---   --   ---xx   flac  0.5879  gd1979-07-01.fob.menke.d1t03.flac
     7:50.36       82992716 B   ---   --   ---xx   flac  0.5734  gd1979-07-01.fob.menke.d1t04.flac
     7:23.68       78305180 B   ---   --   ---xx   flac  0.5099  gd1979-07-01.fob.menke.d1t05.flac
     8:36.43       91123580 B   ---   --   ---xx   flac  0.5505  gd1979-07-01.fob.menke.d1t06.flac
     7:40.44       81247532 B   ---   --   ---xx   flac  0.5343  gd1979-07-01.fob.menke.d1t07.flac
     4:58.04       52576652 B   ---   --   ---xx   flac  0.5582  gd1979-07-01.fob.menke.d1t08.flac
     7:36.42       80537228 B   ---   --   ---xx   flac  0.5172  gd1979-07-01.fob.menke.d1t09.flac
     5:54.54       62572652 B   ---   --   ---xx   flac  0.5901  gd1979-07-01.fob.menke.d1t10.flac
     5:54.54       62572652 B   ---   --   ---xx   flac  0.5901  gd1979-07-01.fob.menke.d1t11.flac
     2:06.71       22393436 B   ---   --   ---xx   flac  0.4883  gd1979-07-01.fob.menke.d2t01.flac
     4:20.06       45878156 B   ---   --   ---xx   flac  0.5818  gd1979-07-01.fob.menke.d2t02.flac
     9:52.03      104435900 B   ---   --   ---xx   flac  0.5837  gd1979-07-01.fob.menke.d2t03.flac
    12:48.08      135494060 B   ---   --   ---xx   flac  0.5735  gd1979-07-01.fob.menke.d2t04.flac
    12:56.53      137011100 B   ---   --   ---xx   flac  0.5376  gd1979-07-01.fob.menke.d2t05.flac
    13:52.26      146825996 B   ---   --   ---xx   flac  0.5668  gd1979-07-01.fob.menke.d2t06.flac
     9:49.18      103941980 B   ---   --   ---xx   flac  0.5259  gd1979-07-01.fob.menke.d2t07.flac
     3:19.25       35162444 B   ---   --   ---xx   flac  0.4766  gd1979-07-01.fob.menke.d3t01.flac
    10:46.61      114097916 B   ---   --   ---xx   flac  0.5092  gd1979-07-01.fob.menke.d3t02.flac
     9:37.09      101804012 B   ---   --   ---xx   flac  0.5955  gd1979-07-01.fob.menke.d3t03.flac
     8:17.40       87764924 B   ---   --   ---xx   flac  0.6017  gd1979-07-01.fob.menke.d3t04.flac
     9:23.18       99355580 B   ---   --   ---xx   flac  0.5677  gd1979-07-01.fob.menke.d3t05.flac
   187:41.45     1986547252 B                            0.5558  (23 files)



More information about the bittorrent mailing list