[bittorrent] gd79-07-01.95742.mtx.seamons.ht34.sbeok.t-flac16

Automated Mailer noreply-bt.e at etree.org
Mon May 30 06:13:38 MDT 2011


Band:           Grateful Dead
Torrent Name:   gd79-07-01.95742.mtx.seamons.ht34.sbeok.t-flac16
Uploaded by:    germain
DB Link:        http://db.etree.org/shn/95742
Details:        http://bt.etree.org/details.php?id=545301

Contact the seeder at http://db.etree.org/germain

If the link to this show does not work, it was probably removed for
being non-trade-friendly.

Description / text file:
-------------------------
This is a tagged version shnid: 95742

Grateful Dead
July 1, 1979
Seattle Center Coliseum
Seattle, WA
gd79-07-01.mtx.seamons.ht34.sbeok.flac16

Jerry Garcia - Lead Guitar, Vocals
Mickey Hart - Drums
Bill Kreutzmann - Drums
Phil Lesh - Electric Bass, Vocals
Brent Mydland - Keyboards, Vocals
Bob Weir - Rhythm Guitar, Vocals

*Matrix*
----------------------------------------------------

SBD:
Recording Info:
SBD -> Cassette Master -> Cassette -> PCM -> AIFF

Transfer Info:
AIFF -> Samplitude Professional v10.1 -> Adobe Audition v1.5 -> FLAC
(3 Discs Audio / 2 Discs FLAC)

All Transfers and Mastering By Charlie Miller
charliemiller87 at earthlink.net
July 28, 2008

[CUTS:]
Mississippi Half-Step Uptown Toodeloo (0:00 - 0:19)
Stagger Lee (0:00 - 3:25)
Sugaree (0:00 - 0:14)
Terrapin Station (10:58 - end of track)
Playing In The Band (0:00 - 0:34)
Around And Around (0:26 - 2:05)

Notes:
-- Set 2 is seamless
-- Thanks to Joe B. Jones for his help with the pitch correction
----------------------------------------------------

AUD:
Recorded by Mark Severson; 2 Sony ECM-270s on pole 35' from stage> 
Sony TC-158SD (2 Maxell UD XL-IIs)
Transfer and FLAC encoding by David Minches:
Master played back on Nak Dragon> Grace Lunatec V3 (24/96)> 
Digital Audio Labs Card Deluxe> Adobe Audition 2.0> (dither/downsample)>
FLAC encoding

[Tape flips in Terrapin and Stella Blue]

-----------------------------------------------------
Thank you to Charlie Miller for the SBD transfer,
to Mark Severson for recording the show,
and to David Minches for the AUD transfer.

Matrix by Hunter Seamons using Final Cut Pro (FLAC>AIFF>Final Cut>WAV>FLAC) 
November 11, 2008
_____________________________________________________________________________

--Set 1--
101-d1t01 - Tuning
102-d1t02 - Mississippi Half-Step Uptown Toodeloo ->
103-d1t03 - Franklin's Tower
104-d1t04 - Mama Tried ->
105-d1t05 - Mexicali Blues
106-d1t06 - Peggy-O
107-d1t07 - New Minglewood Blues
108-d1t08 - Stagger Lee
109-d1t09 - El Paso
110-d1t10 - Brown Eyed Women
111-d1t11 - Passenger

--Set 2--
201-d2t01 - Tuning
202-d2t02 - Don't Ease Me In
203-d2t03 - Samson & Delilah
204-d2t04 - Sugaree
205-d2t05 - Terrapin Station ->
206-d2t06 - Playing in the Band ->
207-d2t07 - Drums ->
208-d3t01 - Space ->
209-d3t02 - Stella Blue ->
210-d3t03 - Truckin' -> Jam ->
211-d3t04 - Around & Around 

--Encore--
212-d3t05 - Shakedown Street
_____________________________________________________________________________

Notes:
1) Cuts in the SBD between songs. A brief dropout near the end of Playing.
2) A couple small cuts in the AUD between songs. The left channel is low for 
part of the second Tuning track. Good AUD banter.
3) Some fluctuations in the SBD mix during Half-Step. Garcia's guitar shifts 
around in the channels, is sort of low in the levels, and is more prominent 
in the right channel for the earlier portion of the show. Luckily, Garcia's 
guitar is a bit louder in Severson's recording, which centers the guitar 
sound more and makes the levels better.
4) About a twenty second portion of Drums>Space in the SBD was repeated, 
which was removed. It appears there may have been another source patched in 
at this moment, since the hiss increases and the speed changes a little after
this point - perhaps another cassette generation.
_____________________________________________________________________________

Tagging notes:
Show information is embedded within the header of each flac file. 
It will display on any player capable of directly playing flac 
files. If converted to wav during processing, all tags will be 
stripped, however audio data will remain unaffected. If you must 
transcode to a lossy format, do so directly Flac > Lossy.
Use ffp to validate audio integrity.
Md5 values will change if tagging is altered.
B. Proctor 11-15-09
_____________________________________________________________________________


    length     expanded size    cdr  WAVE problems  fmt   ratio  filename
     3:46.46       39974636 B   ---   --   ---xx  gd79-07-01d1t01.flac
     8:30.41       90060476 B   ---   --   ---xx  gd79-07-01d1t02.flac
    13:33.29      143481452 B   ---   --   ---xx  gd79-07-01d1t03.flac
     2:33.54       27116252 B   ---   --   ---xx  gd79-07-01d1t04.flac
     5:54.51       62565596 B   ---   --   ---xx  gd79-07-01d1t05.flac
     9:52.72      104598188 B   ---   --   ---xx  gd79-07-01d1t06.flac
     8:25.26       89143196 B   ---   --   ---xx  gd79-07-01d1t07.flac
     8:11.72       86781788 B   ---   --   ---xx  gd79-07-01d1t08.flac
     5:50.11       61765916 B   ---   --   ---xx  gd79-07-01d1t09.flac
     7:14.58       76694060 B   ---   --   ---xx  gd79-07-01d1t10.flac
     5:50.68       61899980 B   ---   --   ---xx  gd79-07-01d1t11.flac
     1:59.44       21095132 B   ---   --   ---xx  gd79-07-01d2t01.flac
     5:08.64       54481772 B   ---   --   ---xx  gd79-07-01d2t02.flac
    11:31.54      122019452 B   ---   --   ---xx  gd79-07-01d2t03.flac
    16:38.27      176110748 B   ---   --   ---xx  gd79-07-01d2t04.flac
    12:03.12      127565468 B   ---   --   ---xx  gd79-07-01d2t05.flac
    13:53.17      146981228 B   ---   --   ---xx  gd79-07-01d2t06.flac
     9:27.26      100079996 B   ---   --   ---xx  gd79-07-01d2t07.flac
     3:43.34       39417212 B   ---   --   ---xx  gd79-07-01d3t01.flac
    10:42.33      113326460 B   ---   --   ---xx  gd79-07-01d3t02.flac
     9:29.10      100395164 B   ---   --   ---xx  gd79-07-01d3t03.flac
    11:10.25      118246844 B   ---   --   ---xx  gd79-07-01d3t04.flac
     8:39.50       91669244 B   ---   --   ---xx  gd79-07-01d3t05.flac
   194:12.24     2055470260 B                            0.5735  (23 files) 




More information about the bittorrent mailing list