[bittorrent] gd79-07-01.93433.sbd.miller.sbeok.t-flac16

Automated Mailer noreply-bt.e at etree.org
Mon May 30 06:10:26 MDT 2011


Band:           Grateful Dead
Torrent Name:   gd79-07-01.93433.sbd.miller.sbeok.t-flac16
Uploaded by:    germain
DB Link:        http://db.etree.org/shn/93433
Details:        http://bt.etree.org/details.php?id=545300

Contact the seeder at http://db.etree.org/germain

If the link to this show does not work, it was probably removed for
being non-trade-friendly.

Description / text file:
-------------------------
This is a tagged version of shnid: 93433

Grateful Dead 
July 1, 1979
Center Coliseum  
Seattle, WA
gd79-07-01.sbd.miller.93433.sbeok.flac16

Recording Info:
SBD -> Cassette Master -> Cassette -> PCM -> AIFF

Transfer Info:
AIFF -> Samplitude Professional v10.1 -> Adobe Audition v1.5 -> FLAC
(3 Discs Audio / 2 Discs FLAC)

All Transfers and Mastering By Charlie Miller
charliemiller87 at earthlink.net
July 28, 2008

Patch Info:
(FOB) Sony ECM-270 -> Cassette Master -> FLAC (shnid=90696) supplies:
Mississippi Half-Step Uptown Toodeloo (0:00 - 0:19)
Stagger Lee (0:00 - 3:25)
Sugaree (0:00 - 0:14)
Terrapin Station (10:58 - end of track)
Playing In The Band (0:00 - 0:34)
Around And Around (0:26 - 2:05)

Notes:
-- Set 2 is seamless
-- Thanks to Joe B. Jones for his help with the pitch correction
______________________________________________________________________________

--Set 1--
101-d1t01 - Mississippi Half-Step Uptown Toodeloo ->
102-d1t02 - Franklin's Tower
103-d1t03 - Mama Tried ->
104-d1t04 - Mexicali Blues
105-d1t05 - Peggy-O
106-d1t06 - New Minglewood Blues
107-d1t07 - Stagger Lee
108-d1t08 - El Paso
109-d1t09 - Brown Eyed Women
110-d1t10 - Passenger

--Set 2--
201-d2t01 - Don't Ease Me In
202-d2t02 - Samson & Delilah
203-d2t03 - Sugaree
204-d2t04 - Terrapin Station ->
205-d2t05 - Playing in the Band ->
206-d2t06 - Drums ->
207-d3t01 - Space ->
208-d3t02 - Stella Blue ->
209-d3t03 - Truckin' ->
210-d3t04 - Around & Around

--Encore--
211-d3t05 - Shakedown Street
______________________________________________________________________________

Tagging notes:
Show information is embedded within the header of each flac file. 
It will display on any player capable of directly playing flac 
files. If converted to wav during processing, all tags will be 
stripped, however audio data will remain unaffected. If you must 
transcode to a lossy format, do so directly Flac > Lossy.
Use ffp to validate audio integrity.
Md5 values will change if tagging is altered.
B. Proctor 8-20-08

SHNTOOL OUTPUT:
    length     expanded size   cdr  WAVE problems filename
     8:35.35       90928364    ---   --   -----   gd79-07-01d1t01.wav
    11:35.44      122701532    ---   --   -----   gd79-07-01d1t02.wav
     2:33.54       27116252    ---   --   -----   gd79-07-01d1t03.wav
     4:49.10       51003164    ---   --   -----   gd79-07-01d1t04.wav
     7:40.17       81184028    ---   --   -----   gd79-07-01d1t05.wav
     5:56.40       62892524    ---   --   -----   gd79-07-01d1t06.wav
     6:47.73       71966540    ---   --   -----   gd79-07-01d1t07.wav
     5:18.68       56255180    ---   --   -----   gd79-07-01d1t08.wav
     6:13.32       65872508    ---   --   -----   gd79-07-01d1t09.wav
     5:45.34       60938012    ---   --   -----   gd79-07-01d1t10.wav
     4:02.56       42820556    ---   --   -----   gd79-07-01d2t01.wav
    11:46.13      124569020    ---   --   -----   gd79-07-01d2t02.wav
    13:12.25      139767644    ---   --   -----   gd79-07-01d2t03.wav
    12:07.49      128358092    ---   --   -----   gd79-07-01d2t04.wav
    13:52.63      146913020    ---   --   -----   gd79-07-01d2t05.wav
     9:36.28      101672300    ---   --   -----   gd79-07-01d2t06.wav
     3:48.02       40223948    ---   --   -----   gd79-07-01d3t01.wav
    10:42.33      113326460    ---   --   -----   gd79-07-01d3t02.wav
     9:29.10      100395164    ---   --   -----   gd79-07-01d3t03.wav
     8:19.50       88141244    ---   --   -----   gd79-07-01d3t04.wav
     8:38.34       91455212    ---   --   -----   gd79-07-01d3t05.wav
   170:52.20     1808500764 B                     (totals for 21 files)




More information about the bittorrent mailing list