[bittorrent] gd79-06-30.94368.aud-senn441.eaton-miller.sbeok.t-flac16

Automated Mailer noreply-bt.e at etree.org
Sun May 29 08:09:09 MDT 2011


Band:           Grateful Dead
Torrent Name:   gd79-06-30.94368.aud-senn441.eaton-miller.sbeok.t-flac16
Uploaded by:    germain
DB Link:        http://db.etree.org/shn/94368
Details:        http://bt.etree.org/details.php?id=545275

Contact the seeder at http://db.etree.org/germain

If the link to this show does not work, it was probably removed for
being non-trade-friendly.

Description / text file:
-------------------------
This is a tagged version of shnid: 94386

Grateful Dead  
June 30, 1979
International Raceway 
Portland, OR
gd79-06-03.senn441-eaton-miller.94386.sbeok.flac16

Recording Info:
(2)Sennheiser 441 + (1)Sennheiser 421 -> Cassette Master(Nakamichi 550) 
-> Dat(48k)

Transfer Info:
Dat (Sony R500) -> VXPocket v2 -> Samplitude Professional v10.1 -> FLAC
(3 Discs Audio / 2 Discs FLAC)

All Transfers and Mastering By Charlie Miller
charliemiller87 at earthlink.net
September 4, 2008

Notes:
-- Set 2 disc change is seamless
-- Recorded by Rob Eaton
-- Cassette Master digitzied by Rob Eaton
-- There is some wind noise on the recording
____________________________________________________________________________

--Set 1--
101-d1t01 - Jack Straw
102-d1t02 - Candyman
103-d1t03 - Me & My Uncle ->
104-d1t04 - Big River
105-d1t05 - Tennessee Jed
106-d1t06 - Looks Like Rain
107-d1t07 - Deal

--Set 2--
201-d2t01 - Tuning
202-d2t02 - I Need a Miracle ->
203-d2t03 - Bertha ->
204-d2t04 - Good Lovin'
205-d2t05 - Friend of the Devil
206-d3t01 - Estimated Prophet ->
207-d3t02 - He's Gone ->
208-d3t03 - Drums ->
209-d3t04 - Space ->
210-d3t05 - The Other One ->
211-d3t06 - Wharf Rat ->
212-d3t07 - Sugar Magnolia

--Encore--
213-d3t08 - One More Saturday Night
____________________________________________________________________________

Tagging notes:
Show information is embedded within the header of each flac file. 
It will display on any player capable of directly playing flac 
files. If converted to wav during processing, all tags will be 
stripped, however audio data will remain unaffected. If you must 
transcode to a lossy format, do so directly Flac > Lossy.
Use ffp to validate audio integrity.
Md5 values will change if tagging is altered.
B. Proctor 3-30-09
____________________________________________________________________________

SHNTOOL OUTPUT:
    length     expanded size   cdr  WAVE problems filename
     8:05.13       85584620    ---   --   -----   gd79-06-30d1t01.wav
     8:56.44       94653932    ---   --   -----   gd79-06-30d1t02.wav
     3:03.62       32427068    ---   --   -----   gd79-06-30d1t03.wav
     5:53.54       62396252    ---   --   -----   gd79-06-30d1t04.wav
    12:04.11      127739516    ---   --   -----   gd79-06-30d1t05.wav
     9:57.14      105343772    ---   --   -----   gd79-06-30d1t06.wav
     4:46.65       50603324    ---   --   -----   gd79-06-30d1t07.wav
     2:09.38       22845020    ---   --   -----   gd79-06-30d2t01.wav
     5:09.64       54658172    ---   --   -----   gd79-06-30d2t02.wav
     6:41.37       70823468    ---   --   -----   gd79-06-30d2t03.wav
     7:27.24       78907292    ---   --   -----   gd79-06-30d2t04.wav
    11:24.71      120824636    ---   --   -----   gd79-06-30d2t05.wav
    11:45.65      124514924    ---   --   -----   gd79-06-30d3t01.wav
    13:37.42      144217628    ---   --   -----   gd79-06-30d3t02.wav
    10:20.37      109455068    ---   --   -----   gd79-06-30d3t03.wav
     1:06.16       11680076    ---   --   -----   gd79-06-30d3t04.wav
    10:28.58      110915660    ---   --   -----   gd79-06-30d3t05.wav
     9:00.11       95281916    ---   --   -----   gd79-06-30d3t06.wav
    10:08.03      107258300    ---   --   -----   gd79-06-30d3t07.wav
     5:18.57       56229308    ---   --   -----   gd79-06-30d3t08.wav
   157:26.36     1666359952 B                     (totals for 20 files)




More information about the bittorrent mailing list