[bittorrent] Netwerk Electric 2001-08-25.mtx.miller.flac16

Automated Mailer noreply-bt.e at etree.org
Sun May 29 07:56:58 MDT 2011


Band:           Other
Torrent Name:   Netwerk Electric 2001-08-25.mtx.miller.flac16
Uploaded by:    WHARFRAT73
DB Link:        http://db.etree.org/lookup_show.php?shows_key=87839
Details:        http://bt.etree.org/details.php?id=545271

Contact the seeder at http://db.etree.org/WHARFRAT73

If the link to this show does not work, it was probably removed for
being non-trade-friendly.

Description / text file:
-------------------------
Netwerk Electric - August 25, 2001
Indigo Event Center - Oakland, CA
Musicians For Medical Marijuana

Recording Info:
SBD (Stereo Feed From House Mix) + (Stage) Rode NT2 -> Behringer MX1604A ->
Sony SBM-1 -> VX Pocket v2 -> Sony Vaio C1VP -> Samplitude -> SHN -> FLAC
(1 Disc Audio / 1 Disc FLAC)

Mixed and Recorded By Charlie Miller
charliemiller87 at earthlink.net
May 28, 2011

Setlist:
d1t01 - What I Say
d1t02 - Tune In
d1t03 - Hamstring
d1t04 - Space Cadets


SHNTOOL OUTPUT:
    length     expanded size   cdr  WAVE problems filename
     8:29.55       89917004    ---   --   ---xx   ne2001-08-25d1t01.flac
    10:37.62      112512668    ---   --   ---xx   ne2001-08-25d1t02.flac
    13:32.20      143283884    ---   --   ---xx   ne2001-08-25d1t03.flac
    14:47.44      156570332    ---   --   ---xx   ne2001-08-25d1t04.flac
    47:27.31      502283888 B                     (totals for 4 files)




More information about the bittorrent mailing list