[bittorrent] gd79-05-13.87854.fob-nak700.glassberg.motb.0036.t-flac16

Automated Mailer noreply-bt.e at etree.org
Sat May 28 07:45:58 MDT 2011


Band:           Grateful Dead
Torrent Name:   gd79-05-13.87854.fob-nak700.glassberg.motb.0036.t-flac16
Uploaded by:    germain
DB Link:        http://db.etree.org/shn/87854
Details:        http://bt.etree.org/details.php?id=545234

Contact the seeder at http://db.etree.org/germain

If the link to this show does not work, it was probably removed for
being non-trade-friendly.

Description / text file:
-------------------------
This is a tagged version of shid: 87854

Grateful Dead
05/13/1979
Cumberland County Civic Center
Portland, ME

Source: 
Audience FOB Recording

Media: 
MAC = Maxell UD XL II C90

Lineage: 
Nakamichi CM700's > Sony TC-158SD > MAC

Transfer: 
MAC>Nakamichi DR-1>Benchmark ADC-1>AES>Sound Devices 722>24/96 WAV

Taped by: B. Glassberg
Transfer by: A. Egert
Mastering by: Andy Foust

MotB Release: 0036 16/44.1
Release Date: 10/09/2007
_____________________________________________________________________

--Set 1-- 
101-d1t01 - Tuning
102-d1t02 - Sugaree 
103-d1t03 - "Take A Step Back" 
104-d1t04 - Mama Tried > 
105-d1t05 - Mexicali Blues  
106-d1t06 - Jack-A-Roe 
107-d1t07 - It's All Over Now  
108-d1t08 - Candyman 
109-d1t09 - El Paso 
110-d1t10 - Row Jimmy 
111-d1t11 - Jack Straw 

--Set 2-- 
201-d2t01 - Tuning
202-d2t02 - Scarlet Begonias -> 
203-d2t03 - Fire on the Mountain 
204-d2t04 - Estimated Prophet -> 
205-d2t05 - He's Gone -> 
206-d2t06 - Truckin'  ->
207-d2t07 - Nobody's Fault Jam ->
208-d2t08 - Truckin' ->
209-d2t09 - Space ->
210-d3t01 - Dru//ms ->
211-d3t02 - Space -> 
212-d3t03 - Wharf Rat -> 
213-d3t04 - Around & Around 

--Encore--
214-d3t05 -  U.S. Blues
_____________________________________________________________________

Editing Notes:
-- Software applied - Wavelab 5.0 > Isotope Ozone > Downsampled from
   24/96 to 16/44.1 with R8brain Pro 

Notes:
-- Mic Bump during Sugaree
-- Mic Bump during Its All Over Now
-- Mic Bump during El Paso
-- Mic adjustments/ sonic anomalies during space
-- Crossfades applied at all tape flips and tape pauses
_____________________________________________________________________

Tagging notes:
Show information is embedded within the header of each flac file. 
It will display on any player capable of directly playing flac 
files. If converted to wav during processing, all tags will be 
stripped, however audio data will remain unaffected. If you must 
transcode to a lossy format, do so directly Flac > Lossy.
Use ffp to validate audio integrity.
Md5 values will change if tagging is altered.
B. Proctor 2-29-09
____________________________________________________________________

FLAC FINGERPRINTS:
gd1979-05-13.motb.0036.d1t01.flac:8d9949868b88a75228ed4062306de6b4
gd1979-05-13.motb.0036.d1t02.flac:36f3110f7ec88efb8449713fc8c842b1
gd1979-05-13.motb.0036.d1t03.flac:e942d5dfaf7814df1f3faa1fa124d9d9
gd1979-05-13.motb.0036.d1t04.flac:66d4b4750d75098abc61c094e2ff9a5f
gd1979-05-13.motb.0036.d1t05.flac:6c713334b2f389924dbcfa447bc84659
gd1979-05-13.motb.0036.d1t06.flac:1fbfedbaf5af6a15d5df1e0a724d32e5
gd1979-05-13.motb.0036.d1t07.flac:4997b856e25e0b170e3a630cbc97b1e0
gd1979-05-13.motb.0036.d1t08.flac:90d8cdac22a879668daa80860b3d21cd
gd1979-05-13.motb.0036.d1t09.flac:360d8e399e1280a41cda0bdd183447de
gd1979-05-13.motb.0036.d1t10.flac:aff04d80e918af51c0d2d5bac57e48dd
gd1979-05-13.motb.0036.d1t11.flac:d9b802e131d5ac1dba51f44c97dd2be7
gd1979-05-13.motb.0036.d2t01.flac:c69e8ad1c295144dd43d5b3040ae8d4d
gd1979-05-13.motb.0036.d2t02.flac:9edde3fe588ad41530379231b30698c6
gd1979-05-13.motb.0036.d2t03.flac:61a587f78584d33dcd13cdfc8af7d927
gd1979-05-13.motb.0036.d2t04.flac:6ede32edcea596e54f3c5ba9015865fe
gd1979-05-13.motb.0036.d2t05.flac:6a34f887549ed91daf65ef01cd48a7be
gd1979-05-13.motb.0036.d2t06.flac:76f74ec35cff9b03f75a04163c03ee0b
gd1979-05-13.motb.0036.d2t07.flac:3a05f6aee6899495d85a857639ab7eed
gd1979-05-13.motb.0036.d2t08.flac:e314bd50d84e8db784e3164d685667d2
gd1979-05-13.motb.0036.d2t09.flac:d6aab0c5f8f5cb22159717de566dcf5d
gd1979-05-13.motb.0036.d3t01.flac:bd0c2318a18222d93b28940bf2b1116c
gd1979-05-13.motb.0036.d3t02.flac:d9d013647f4cadf6a8594b3729da154f
gd1979-05-13.motb.0036.d3t03.flac:ea3cd7295f01edb73184134384c837f8
gd1979-05-13.motb.0036.d3t04.flac:199ad5c61ebf6817c02786eaa5ab972a
gd1979-05-13.motb.0036.d3t05.flac:c94caeb9f7d206131e98abd972bb431f


SHNTOOL OUTPUT:
    length     expanded size   cdr  WAVE problems filename
     0:35.08        6192860    ---   --   ---xx   gd1979-05-13.motb.0036.d1t01.flac
    15:21.14      162497372    ---   --   ---xx   gd1979-05-13.motb.0036.d1t02.flac
     1:45.26       18583196    ---   --   ---xx   gd1979-05-13.motb.0036.d1t03.flac
     2:30.72       26629388    ---   --   ---xx   gd1979-05-13.motb.0036.d1t04.flac
     4:38.73       49210940    ---   --   ---xx   gd1979-05-13.motb.0036.d1t05.flac
     5:22.08       56819660    ---   --   ---xx   gd1979-05-13.motb.0036.d1t06.flac
     9:33.59      101216012    ---   --   ---xx   gd1979-05-13.motb.0036.d1t07.flac
     8:00.57       84806108    ---   --   ---xx   gd1979-05-13.motb.0036.d1t08.flac
     4:49.59       51118412    ---   --   ---xx   gd1979-05-13.motb.0036.d1t09.flac
    11:13.21      118766636    ---   --   ---xx   gd1979-05-13.motb.0036.d1t10.flac
     6:44.23       71319740    ---   --   ---xx   gd1979-05-13.motb.0036.d1t11.flac
     1:05.65       11618924    ---   --   ---xx   gd1979-05-13.motb.0036.d2t01.flac
    12:12.73      129296540    ---   --   ---xx   gd1979-05-13.motb.0036.d2t02.flac
    11:26.07      121026908    ---   --   ---xx   gd1979-05-13.motb.0036.d2t03.flac
    12:02.38      127450220    ---   --   ---xx   gd1979-05-13.motb.0036.d2t04.flac
    11:08.73      118006940    ---   --   ---xx   gd1979-05-13.motb.0036.d2t05.flac
     8:14.58       87278060    ---   --   ---xx   gd1979-05-13.motb.0036.d2t06.flac
     1:18.19       13803932    ---   --   ---xx   gd1979-05-13.motb.0036.d2t07.flac
     1:45.32       18597308    ---   --   ---xx   gd1979-05-13.motb.0036.d2t08.flac
     7:12.65       76357724    ---   --   ---xx   gd1979-05-13.motb.0036.d2t09.flac
     1:34.22       16633388    ---   --   ---xx   gd1979-05-13.motb.0036.d3t01.flac
     3:24.17       36025628    ---   --   ---xx   gd1979-05-13.motb.0036.d3t02.flac
    10:21.21      109593836    ---   --   ---xx   gd1979-05-13.motb.0036.d3t03.flac
     9:05.36       96222716    ---   --   ---xx   gd1979-05-13.motb.0036.d3t04.flac
     5:43.36       60589916    ---   --   ---xx   gd1979-05-13.motb.0036.d3t05.flac
   167:12.07     1769662364 B                     (totals for 25 files, 0.6455 overall compression ratio)





More information about the bittorrent mailing list