[bittorrent] Parliament Funkadelic 9/77 SBD

Automated Mailer noreply-bt.e at etree.org
Wed May 25 07:53:31 MDT 2011


Band:           Other
Torrent Name:   Parliament Funkadelic 9/77 SBD
Uploaded by:    i-miss-tol
DB Link:        http://db.etree.org/lookup_show.php?shows_key=377424
Details:        http://bt.etree.org/details.php?id=545163

Contact the seeder at http://db.etree.org/i-miss-tol

If the link to this show does not work, it was probably removed for
being non-trade-friendly.

Description / text file:
-------------------------
*this show came with an unknown date, but they def. played MSG in early September '77*

1977  Parliament Funkadelic
New York City, NY

lineage:  SBD>liberated bootleg>?>CD

Mothership Connection (Star Child)
Dr. Funkenstein
Do That Stuff
Standing On the Verge Of Getting It On>
UnDisco Kid
Getten To Know You
Coming 'Round the Mountain
Maggot Brain>
Good To Your Earhole

SHNTOOL:
    length     expanded size   cdr  WAVE problems filename
     7:19.72       77608988    ---   --   ---xx   Track01.shn
     9:51.20      104299484    ---   --   ---xx   Track02.shn
     4:44.66       50252876    ---   --   ---xx   Track03.shn
     7:34.10       80109164    ---   --   ---xx   Track04.shn
     6:42.05       70924604    ---   --   ---xx   Track05.shn
     3:12.58       34005260    ---   --   ---xx   Track06.shn
    13:40.11      144673916    ---   --   ---xx   Track07.shn
    53:05.17      561874292 B                     (totals for 7 files)



More information about the bittorrent mailing list